  0
SECTION
  2
HEADER
  9
$ACADVER
  1
AC1015
  9
$ACADMAINTVER
 70
    18
  9
$DWGCODEPAGE
  3
ANSI_1252
  9
$INSBASE
 10
0.0
 20
0.0
 30
0.0
  9
$EXTMIN
 10
0.0
 20
0.0
 30
0.0
  9
$EXTMAX
 10
420.0
 20
594.0
 30
0.0
  9
$LIMMIN
 10
0.0
 20
0.0
  9
$LIMMAX
 10
420.0
 20
594.0
  9
$ORTHOMODE
 70
     0
  9
$REGENMODE
 70
     1
  9
$FILLMODE
 70
     1
  9
$QTEXTMODE
 70
     0
  9
$MIRRTEXT
 70
     0
  9
$LTSCALE
 40
2.0
  9
$ATTMODE
 70
     1
  9
$TEXTSIZE
 40
0.2
  9
$TRACEWID
 40
0.05
  9
$TEXTSTYLE
  7
Standard
  9
$CLAYER
  8
0
  9
$CELTYPE
  6
ByLayer
  9
$CECOLOR
 62
   256
  9
$CELTSCALE
 40
1.0
  9
$DISPSILH
 70
     0
  9
$DIMSCALE
 40
1.0
  9
$DIMASZ
 40
1.799999999999999
  9
$DIMEXO
 40
0.0625
  9
$DIMDLI
 40
0.38
  9
$DIMRND
 40
0.0
  9
$DIMDLE
 40
0.0
  9
$DIMEXE
 40
0.18
  9
$DIMTP
 40
0.0
  9
$DIMTM
 40
0.0
  9
$DIMTXT
 40
0.5
  9
$DIMCEN
 40
0.09
  9
$DIMTSZ
 40
0.0
  9
$DIMTOL
 70
     0
  9
$DIMLIM
 70
     0
  9
$DIMTIH
 70
     1
  9
$DIMTOH
 70
     1
  9
$DIMSE1
 70
     0
  9
$DIMSE2
 70
     0
  9
$DIMTAD
 70
     0
  9
$DIMZIN
 70
     0
  9
$DIMBLK
  1

  9
$DIMASO
 70
     1
  9
$DIMSHO
 70
     1
  9
$DIMPOST
  1

  9
$DIMAPOST
  1

  9
$DIMALT
 70
     0
  9
$DIMALTD
 70
     2
  9
$DIMALTF
 40
25.4
  9
$DIMLFAC
 40
1.0
  9
$DIMTOFL
 70
     0
  9
$DIMTVP
 40
0.0
  9
$DIMTIX
 70
     0
  9
$DIMSOXD
 70
     0
  9
$DIMSAH
 70
     0
  9
$DIMBLK1
  1

  9
$DIMBLK2
  1

  9
$DIMSTYLE
  2
Standard
  9
$DIMCLRD
 70
     0
  9
$DIMCLRE
 70
     0
  9
$DIMCLRT
 70
     0
  9
$DIMTFAC
 40
1.0
  9
$DIMGAP
 40
0.09
  9
$DIMJUST
 70
     0
  9
$DIMSD1
 70
     0
  9
$DIMSD2
 70
     0
  9
$DIMTOLJ
 70
     1
  9
$DIMTZIN
 70
     0
  9
$DIMALTZ
 70
     0
  9
$DIMALTTZ
 70
     0
  9
$DIMUPT
 70
     0
  9
$DIMDEC
 70
     4
  9
$DIMTDEC
 70
     4
  9
$DIMALTU
 70
     2
  9
$DIMALTTD
 70
     2
  9
$DIMTXSTY
  7
Standard
  9
$DIMAUNIT
 70
     0
  9
$DIMADEC
 70
     0
  9
$DIMALTRND
 40
0.0
  9
$DIMAZIN
 70
     0
  9
$DIMDSEP
 70
    46
  9
$DIMATFIT
 70
     3
  9
$DIMFRAC
 70
     0
  9
$DIMLDRBLK
  1

  9
$DIMLUNIT
 70
     2
  9
$DIMLWD
 70
    -2
  9
$DIMLWE
 70
    -2
  9
$DIMTMOVE
 70
     0
  9
$LUNITS
 70
     2
  9
$LUPREC
 70
     4
  9
$SKETCHINC
 40
0.1
  9
$FILLETRAD
 40
0.0
  9
$AUNITS
 70
     0
  9
$AUPREC
 70
     0
  9
$MENU
  1
.
  9
$ELEVATION
 40
0.0
  9
$PELEVATION
 40
0.0
  9
$THICKNESS
 40
0.0
  9
$LIMCHECK
 70
     0
  9
$CHAMFERA
 40
0.0
  9
$CHAMFERB
 40
0.0
  9
$CHAMFERC
 40
0.0
  9
$CHAMFERD
 40
0.0
  9
$SKPOLY
 70
     0
  9
$TDCREATE
 40
2455936.468669433
  9
$TDUCREATE
 40
2455936.427002766
  9
$TDUPDATE
 40
2455936.468669433
  9
$TDUUPDATE
 40
2455936.427002766
  9
$TDINDWG
 40
0.0000403241
  9
$TDUSRTIMER
 40
0.0000403241
  9
$USRTIMER
 70
     1
  9
$ANGBASE
 50
0.0
  9
$ANGDIR
 70
     0
  9
$PDMODE
 70
     0
  9
$PDSIZE
 40
0.0
  9
$PLINEWID
 40
0.0
  9
$SPLFRAME
 70
     0
  9
$SPLINETYPE
 70
     6
  9
$SPLINESEGS
 70
     8
  9
$HANDSEED
  5
977
  9
$SURFTAB1
 70
     6
  9
$SURFTAB2
 70
     6
  9
$SURFTYPE
 70
     6
  9
$SURFU
 70
     6
  9
$SURFV
 70
     6
  9
$UCSBASE
  2

  9
$UCSNAME
  2

  9
$UCSORG
 10
0.0
 20
0.0
 30
0.0
  9
$UCSXDIR
 10
1.0
 20
0.0
 30
0.0
  9
$UCSYDIR
 10
0.0
 20
1.0
 30
0.0
  9
$UCSORTHOREF
  2

  9
$UCSORTHOVIEW
 70
     0
  9
$UCSORGTOP
 10
0.0
 20
0.0
 30
0.0
  9
$UCSORGBOTTOM
 10
0.0
 20
0.0
 30
0.0
  9
$UCSORGLEFT
 10
0.0
 20
0.0
 30
0.0
  9
$UCSORGRIGHT
 10
0.0
 20
0.0
 30
0.0
  9
$UCSORGFRONT
 10
0.0
 20
0.0
 30
0.0
  9
$UCSORGBACK
 10
0.0
 20
0.0
 30
0.0
  9
$PUCSBASE
  2

  9
$PUCSNAME
  2

  9
$PUCSORG
 10
0.0
 20
0.0
 30
0.0
  9
$PUCSXDIR
 10
1.0
 20
0.0
 30
0.0
  9
$PUCSYDIR
 10
0.0
 20
1.0
 30
0.0
  9
$PUCSORTHOREF
  2

  9
$PUCSORTHOVIEW
 70
     0
  9
$PUCSORGTOP
 10
0.0
 20
0.0
 30
0.0
  9
$PUCSORGBOTTOM
 10
0.0
 20
0.0
 30
0.0
  9
$PUCSORGLEFT
 10
0.0
 20
0.0
 30
0.0
  9
$PUCSORGRIGHT
 10
0.0
 20
0.0
 30
0.0
  9
$PUCSORGFRONT
 10
0.0
 20
0.0
 30
0.0
  9
$PUCSORGBACK
 10
0.0
 20
0.0
 30
0.0
  9
$USERI1
 70
     0
  9
$USERI2
 70
     0
  9
$USERI3
 70
     0
  9
$USERI4
 70
     0
  9
$USERI5
 70
     0
  9
$USERR1
 40
0.0
  9
$USERR2
 40
0.0
  9
$USERR3
 40
0.0
  9
$USERR4
 40
0.0
  9
$USERR5
 40
0.0
  9
$WORLDVIEW
 70
     1
  9
$SHADEDGE
 70
     3
  9
$SHADEDIF
 70
    70
  9
$TILEMODE
 70
     1
  9
$MAXACTVP
 70
    64
  9
$PINSBASE
 10
0.0
 20
0.0
 30
0.0
  9
$PLIMCHECK
 70
     0
  9
$PEXTMIN
 10
0.0
 20
0.0
 30
0.0
  9
$PEXTMAX
 10
420.0
 20
594.0
 30
0.0
  9
$PLIMMIN
 10
0.0
 20
0.0
  9
$PLIMMAX
 10
420.0
 20
594.0
  9
$UNITMODE
 70
     0
  9
$VISRETAIN
 70
     1
  9
$PLINEGEN
 70
     0
  9
$PSLTSCALE
 70
     1
  9
$TREEDEPTH
 70
  3020
  9
$CMLSTYLE
  2
Standard
  9
$CMLJUST
 70
     0
  9
$CMLSCALE
 40
1.0
  9
$PROXYGRAPHICS
 70
     1
  9
$MEASUREMENT
 70
     1
  9
$CELWEIGHT
370
    -1
  9
$ENDCAPS
280
     0
  9
$JOINSTYLE
280
     0
  9
$LWDISPLAY
290
     0
  9
$INSUNITS
 70
     4
  9
$HYPERLINKBASE
  1

  9
$STYLESHEET
  1

  9
$XEDIT
290
     1
  9
$CEPSNTYPE
380
     0
  9
$PSTYLEMODE
290
     1
  9
$FINGERPRINTGUID
  2
{860B3FBD-D9D8-44F1-A646-F725A4EFF951}
  9
$VERSIONGUID
  2
{B2732366-D6A1-4A7A-AF97-49B00E7A22CA}
  9
$EXTNAMES
290
     1
  9
$PSVPSCALE
 40
0.0
  9
$OLESTARTUP
290
     0
  0
ENDSEC
  0
SECTION
  2
CLASSES
  0
CLASS
  1
ACDBDICTIONARYWDFLT
  2
AcDbDictionaryWithDefault
  3
ObjectDBX Classes
 90
        0
280
     0
281
     0
  0
CLASS
  1
MATERIAL
  2
AcDbMaterial
  3
ObjectDBX Classes
 90
     1153
280
     0
281
     0
  0
CLASS
  1
VISUALSTYLE
  2
AcDbVisualStyle
  3
ObjectDBX Classes
 90
     4095
280
     0
281
     0
  0
CLASS
  1
SCALE
  2
AcDbScale
  3
ObjectDBX Classes
 90
     1153
280
     0
281
     0
  0
CLASS
  1
TABLESTYLE
  2
AcDbTableStyle
  3
ObjectDBX Classes
 90
     4095
280
     0
281
     0
  0
CLASS
  1
MLEADERSTYLE
  2
AcDbMLeaderStyle
  3
ACDB_MLEADERSTYLE_CLASS
 90
     4095
280
     0
281
     0
  0
CLASS
  1
DICTIONARYVAR
  2
AcDbDictionaryVar
  3
ObjectDBX Classes
 90
        0
280
     0
281
     0
  0
CLASS
  1
CELLSTYLEMAP
  2
AcDbCellStyleMap
  3
ObjectDBX Classes
 90
     1152
280
     0
281
     0
  0
CLASS
  1
ACDBPLACEHOLDER
  2
AcDbPlaceHolder
  3
ObjectDBX Classes
 90
        0
280
     0
281
     0
  0
CLASS
  1
LAYOUT
  2
AcDbLayout
  3
ObjectDBX Classes
 90
        0
280
     0
281
     0
  0
ENDSEC
  0
SECTION
  2
TABLES
  0
TABLE
  2
VPORT
  5
8
330
0
100
AcDbSymbolTable
 70
     1
  0
VPORT
  5
57
330
8
100
AcDbSymbolTableRecord
100
AcDbViewportTableRecord
  2
*Active
 70
     0
 10
0.0
 20
0.0
 11
1.0
 21
1.0
 12
210.0
 22
297.0
 13
0.0
 23
0.0
 14
1.0
 24
1.0
 15
0.0
 25
0.0
 16
0.0
 26
0.0
 36
1.0
 17
0.0
 27
0.0
 37
0.0
 40
594.0
 41
0.7070707070707071
 42
50.0
 43
0.0
 44
0.0
 50
0.0
 51
0.0
 71
     0
 72
   100
 73
     1
 74
     1
 75
     0
 76
     0
 77
     0
 78
     0
281
     0
 65
     1
110
0.0
120
0.0
130
0.0
111
1.0
121
0.0
131
0.0
112
0.0
122
1.0
132
0.0
 79
     0
146
0.0
  0
ENDTAB
  0
TABLE
  2
LTYPE
  5
5
330
0
100
AcDbSymbolTable
 70
    60
  0
LTYPE
  5
5B
330
5
100
AcDbSymbolTableRecord
100
AcDbLinetypeTableRecord
  2
ByBlock
 70
     0
  3

 72
    65
 73
     0
 40
0.0
  0
LTYPE
  5
5C
330
5
100
AcDbSymbolTableRecord
100
AcDbLinetypeTableRecord
  2
ByLayer
 70
     0
  3

 72
    65
 73
     0
 40
0.0
  0
LTYPE
  5
5D
330
5
100
AcDbSymbolTableRecord
100
AcDbLinetypeTableRecord
  2
Continuous
 70
     0
  3
Solid line
 72
    65
 73
     0
 40
0.0
  0
LTYPE
  5
74
330
5
100
AcDbSymbolTableRecord
100
AcDbLinetypeTableRecord
  2
Section_View_Lines
 70
     0
  3
Section View Lines
 72
    65
 73
     4
 40
0.8406
 49
0.6614
 74
     0
 49
-0.0827
 74
     0
 49
0.0138
 74
     0
 49
-0.0827
 74
     0
  0
LTYPE
  5
75
330
5
100
AcDbSymbolTableRecord
100
AcDbLinetypeTableRecord
  2
CHAIN
 70
     0
  3
Chain ____ _ ____ _ ____ _ ____ _ ____ _ ____
 72
    65
 73
     4
 40
0.3543
 49
0.2362
 74
     0
 49
-0.0295
 74
     0
 49
0.0591
 74
     0
 49
-0.0295
 74
     0
  0
LTYPE
  5
76
330
5
100
AcDbSymbolTableRecord
100
AcDbLinetypeTableRecord
  2
DASH_DOT
 70
     0
  3
Dash dot _._._._._._._._._._._._._._._.
 72
    65
 73
     4
 40
0.182
 49
0.1181
 74
     0
 49
-0.0295
 74
     0
 49
0.0049
 74
     0
 49
-0.0295
 74
     0
  0
LTYPE
  5
77
330
5
100
AcDbSymbolTableRecord
100
AcDbLinetypeTableRecord
  2
DASH_DOUBLE_DOT
 70
     0
  3
Dash Double Dot __ __ . __ __ . __ __ . __ _
 72
    65
 73
     6
 40
0.2164
 49
0.1181
 74
     0
 49
-0.0295
 74
     0
 49
0.0049
 74
     0
 49
-0.0295
 74
     0
 49
0.0049
 74
     0
 49
-0.0295
 74
     0
  0
LTYPE
  5
78
330
5
100
AcDbSymbolTableRecord
100
AcDbLinetypeTableRecord
  2
DASH_TRIPLE_DOT
 70
     0
  3
Dash Triple-Dot _ . . . _ . . . _ . . . _
 72
    65
 73
     8
 40
0.2508
 49
0.1181
 74
     0
 49
-0.0295
 74
     0
 49
0.0049
 74
     0
 49
-0.0295
 74
     0
 49
0.0049
 74
     0
 49
-0.0295
 74
     0
 49
0.0049
 74
     0
 49
-0.0295
 74
     0
  0
LTYPE
  5
79
330
5
100
AcDbSymbolTableRecord
100
AcDbLinetypeTableRecord
  2
DASHED
 70
     0
  3
Dashed __ __ __ __ __ __ __ __ __ __ __ __ __ _
 72
    65
 73
     2
 40
0.2068
 49
0.1655
 74
     0
 49
-0.0413
 74
     0
  0
LTYPE
  5
7A
330
5
100
AcDbSymbolTableRecord
100
AcDbLinetypeTableRecord
  2
DASHED_SPACE
 70
     0
  3
Dashed Space __ __ __ __ __ __ __ __ __ __ __ _
 72
    65
 73
     2
 40
0.2067
 49
0.1654
 74
     0
 49
-0.0413
 74
     0
  0
LTYPE
  5
7B
330
5
100
AcDbSymbolTableRecord
100
AcDbLinetypeTableRecord
  2
DOTTED
 70
     0
  3
Dotted . . . . . . . . . . . . . . . . . . . . 
 72
    65
 73
     2
 40
0.0481
 49
0.0068
 74
     0
 49
-0.0413
 74
     0
  0
LTYPE
  5
7C
330
5
100
AcDbSymbolTableRecord
100
AcDbLinetypeTableRecord
  2
DOUBLE_DASH_CHAIN
 70
     0
  3
Double Dash Chain ___ _ _ ___ _ _ ___ _ _ ___ _
 72
    65
 73
     6
 40
1.240299999999999
 49
0.6614
 74
     0
 49
-0.0827
 74
     0
 49
0.1654
 74
     0
 49
-0.0827
 74
     0
 49
0.1654
 74
     0
 49
-0.0827
 74
     0
  0
LTYPE
  5
7D
330
5
100
AcDbSymbolTableRecord
100
AcDbLinetypeTableRecord
  2
DOUBLE_DASH_DOT
 70
     0
  3
Double Dash Dot __ __ . __ __ . __ __ . __ _
 72
    65
 73
     6
 40
0.3296
 49
0.1181
 74
     0
 49
-0.0295
 74
     0
 49
0.1181
 74
     0
 49
-0.0295
 74
     0
 49
0.0049
 74
     0
 49
-0.0295
 74
     0
  0
LTYPE
  5
7E
330
5
100
AcDbSymbolTableRecord
100
AcDbLinetypeTableRecord
  2
DOUBLE_DASH_DOUBLE_DOT
 70
     0
  3
Double Dash Double Dot _ _ . . _ _ . . _ _
 72
    65
 73
     8
 40
0.364
 49
0.1181
 74
     0
 49
-0.0295
 74
     0
 49
0.1181
 74
     0
 49
-0.0295
 74
     0
 49
0.0049
 74
     0
 49
-0.0295
 74
     0
 49
0.0049
 74
     0
 49
-0.0295
 74
     0
  0
LTYPE
  5
7F
330
5
100
AcDbSymbolTableRecord
100
AcDbLinetypeTableRecord
  2
DOUBLE_DASH_TRIPLE_DOT
 70
     0
  3
Double Dash Triple Dot __ __ . . . __ __ . . .
 72
    65
 73
    10
 40
0.3984
 49
0.1181
 74
     0
 49
-0.0295
 74
     0
 49
0.1181
 74
     0
 49
-0.0295
 74
     0
 49
0.0049
 74
     0
 49
-0.0295
 74
     0
 49
0.0049
 74
     0
 49
-0.0295
 74
     0
 49
0.0049
 74
     0
 49
-0.0295
 74
     0
  0
LTYPE
  5
80
330
5
100
AcDbSymbolTableRecord
100
AcDbLinetypeTableRecord
  2
LONG_DASH_DOTTED
 70
     0
  3
Long Dash Dotted ____ . ____ . ____ . ____ . _
 72
    65
 73
     4
 40
0.3001
 49
0.2362
 74
     0
 49
-0.0295
 74
     0
 49
0.0049
 74
     0
 49
-0.0295
 74
     0
  0
LTYPE
  5
81
330
5
100
AcDbSymbolTableRecord
100
AcDbLinetypeTableRecord
  2
LONG_DASH_DOUBLE_DOT
 70
     0
  3
Long Dash Double Dot ____ . . ____ . . ____ . .
 72
    65
 73
     6
 40
0.3345
 49
0.2362
 74
     0
 49
-0.0295
 74
     0
 49
0.0049
 74
     0
 49
-0.0295
 74
     0
 49
0.0049
 74
     0
 49
-0.0295
 74
     0
  0
LTYPE
  5
82
330
5
100
AcDbSymbolTableRecord
100
AcDbLinetypeTableRecord
  2
LONG_DASH_TRIPLE_DOT
 70
     0
  3
Long Dash Triple Dot ____ ... ____ ... ____
 72
    65
 73
     8
 40
0.3689
 49
0.2362
 74
     0
 49
-0.0295
 74
     0
 49
0.0049
 74
     0
 49
-0.0295
 74
     0
 49
0.0049
 74
     0
 49
-0.0295
 74
     0
 49
0.0049
 74
     0
 49
-0.0295
 74
     0
  0
LTYPE
  5
83
330
5
100
AcDbSymbolTableRecord
100
AcDbLinetypeTableRecord
  2
BORDER
 70
     0
  3
Border __ __ . __ __ . __ __ . __ __ . __ __ .
 72
    65
 73
     6
 40
44.45
 49
12.7
 74
     0
 49
-6.349999999999999
 74
     0
 49
12.7
 74
     0
 49
-6.349999999999999
 74
     0
 49
0.0
 74
     0
 49
-6.349999999999999
 74
     0
  0
LTYPE
  5
84
330
5
100
AcDbSymbolTableRecord
100
AcDbLinetypeTableRecord
  2
BORDER2
 70
     0
  3
Border (.5x) __.__.__.__.__.__.__.__.__.__.__.
 72
    65
 73
     6
 40
22.225
 49
6.349999999999999
 74
     0
 49
-3.174999999999999
 74
     0
 49
6.349999999999999
 74
     0
 49
-3.174999999999999
 74
     0
 49
0.0
 74
     0
 49
-3.174999999999999
 74
     0
  0
LTYPE
  5
85
330
5
100
AcDbSymbolTableRecord
100
AcDbLinetypeTableRecord
  2
BORDERX2
 70
     0
  3
Border (2x) ____  ____  .  ____  ____  .  ___
 72
    65
 73
     6
 40
88.9
 49
25.4
 74
     0
 49
-12.7
 74
     0
 49
25.4
 74
     0
 49
-12.7
 74
     0
 49
0.0
 74
     0
 49
-12.7
 74
     0
  0
LTYPE
  5
86
330
5
100
AcDbSymbolTableRecord
100
AcDbLinetypeTableRecord
  2
CENTER
 70
     0
  3
Center ____ _ ____ _ ____ _ ____ _ ____ _ ____
 72
    65
 73
     4
 40
50.8
 49
31.75
 74
     0
 49
-6.349999999999999
 74
     0
 49
6.349999999999999
 74
     0
 49
-6.349999999999999
 74
     0
  0
LTYPE
  5
87
330
5
100
AcDbSymbolTableRecord
100
AcDbLinetypeTableRecord
  2
CENTER2
 70
     0
  3
Center (.5x) ___ _ ___ _ ___ _ ___ _ ___ _ ___
 72
    65
 73
     4
 40
28.575
 49
19.05
 74
     0
 49
-3.174999999999999
 74
     0
 49
3.174999999999999
 74
     0
 49
-3.174999999999999
 74
     0
  0
LTYPE
  5
88
330
5
100
AcDbSymbolTableRecord
100
AcDbLinetypeTableRecord
  2
CENTERX2
 70
     0
  3
Center (2x) ________  __  ________  __  _____
 72
    65
 73
     4
 40
101.6
 49
63.5
 74
     0
 49
-12.7
 74
     0
 49
12.7
 74
     0
 49
-12.7
 74
     0
  0
LTYPE
  5
89
330
5
100
AcDbSymbolTableRecord
100
AcDbLinetypeTableRecord
  2
DASHDOT2
 70
     0
  3
Dash dot (.5x) _._._._._._._._._._._._._._._.
 72
    65
 73
     4
 40
12.7
 49
6.349999999999999
 74
     0
 49
-3.174999999999999
 74
     0
 49
0.0
 74
     0
 49
-3.174999999999999
 74
     0
  0
LTYPE
  5
8A
330
5
100
AcDbSymbolTableRecord
100
AcDbLinetypeTableRecord
  2
DASHDOTX2
 70
     0
  3
Dash dot (2x) ____  .  ____  .  ____  .  ___
 72
    65
 73
     4
 40
50.8
 49
25.4
 74
     0
 49
-12.7
 74
     0
 49
0.0
 74
     0
 49
-12.7
 74
     0
  0
LTYPE
  5
8B
330
5
100
AcDbSymbolTableRecord
100
AcDbLinetypeTableRecord
  2
DASHED2
 70
     0
  3
Dashed (.5x) _ _ _ _ _ _ _ _ _ _ _ _ _ _ _ _ _
 72
    65
 73
     2
 40
9.524999999999998
 49
6.349999999999999
 74
     0
 49
-3.174999999999999
 74
     0
  0
LTYPE
  5
8C
330
5
100
AcDbSymbolTableRecord
100
AcDbLinetypeTableRecord
  2
DASHEDX2
 70
     0
  3
Dashed (2x) ____  ____  ____  ____  ____  ___
 72
    65
 73
     2
 40
38.1
 49
25.4
 74
     0
 49
-12.7
 74
     0
  0
LTYPE
  5
8D
330
5
100
AcDbSymbolTableRecord
100
AcDbLinetypeTableRecord
  2
DIVIDE
 70
     0
  3
Divide ____ . . ____ . . ____ . . ____ . . ____
 72
    65
 73
     6
 40
31.75
 49
12.7
 74
     0
 49
-6.349999999999999
 74
     0
 49
0.0
 74
     0
 49
-6.349999999999999
 74
     0
 49
0.0
 74
     0
 49
-6.349999999999999
 74
     0
  0
LTYPE
  5
8E
330
5
100
AcDbSymbolTableRecord
100
AcDbLinetypeTableRecord
  2
DIVIDE2
 70
     0
  3
Divide (.5x) __..__..__..__..__..__..__..__.._
 72
    65
 73
     6
 40
15.875
 49
6.349999999999999
 74
     0
 49
-3.174999999999999
 74
     0
 49
0.0
 74
     0
 49
-3.174999999999999
 74
     0
 49
0.0
 74
     0
 49
-3.174999999999999
 74
     0
  0
LTYPE
  5
8F
330
5
100
AcDbSymbolTableRecord
100
AcDbLinetypeTableRecord
  2
DIVIDEX2
 70
     0
  3
Divide (2x) ________  .  .  ________  .  .  _
 72
    65
 73
     6
 40
63.49999999999999
 49
25.4
 74
     0
 49
-12.7
 74
     0
 49
0.0
 74
     0
 49
-12.7
 74
     0
 49
0.0
 74
     0
 49
-12.7
 74
     0
  0
LTYPE
  5
90
330
5
100
AcDbSymbolTableRecord
100
AcDbLinetypeTableRecord
  2
DOT
 70
     0
  3
Dot . . . . . . . . . . . . . . . . . . . . . .
 72
    65
 73
     2
 40
6.349999999999999
 49
0.0
 74
     0
 49
-6.349999999999999
 74
     0
  0
LTYPE
  5
91
330
5
100
AcDbSymbolTableRecord
100
AcDbLinetypeTableRecord
  2
DOT2
 70
     0
  3
Dot (.5x) .....................................
 72
    65
 73
     2
 40
3.174999999999999
 49
0.0
 74
     0
 49
-3.174999999999999
 74
     0
  0
LTYPE
  5
92
330
5
100
AcDbSymbolTableRecord
100
AcDbLinetypeTableRecord
  2
DOTX2
 70
     0
  3
Dot (2x) .  .  .  .  .  .  .  .  .  .  .  .  . 
 72
    65
 73
     2
 40
12.7
 49
0.0
 74
     0
 49
-12.7
 74
     0
  0
LTYPE
  5
93
330
5
100
AcDbSymbolTableRecord
100
AcDbLinetypeTableRecord
  2
HIDDEN
 70
     0
  3
Hidden __ __ __ __ __ __ __ __ __ __ __ __ __ _
 72
    65
 73
     2
 40
9.524999999999998
 49
6.349999999999999
 74
     0
 49
-3.174999999999999
 74
     0
  0
LTYPE
  5
94
330
5
100
AcDbSymbolTableRecord
100
AcDbLinetypeTableRecord
  2
HIDDEN2
 70
     0
  3
Hidden (.5x) _ _ _ _ _ _ _ _ _ _ _ _ _ _ _ _ _
 72
    65
 73
     2
 40
4.762499999999999
 49
3.174999999999999
 74
     0
 49
-1.587499999999999
 74
     0
  0
LTYPE
  5
95
330
5
100
AcDbSymbolTableRecord
100
AcDbLinetypeTableRecord
  2
HIDDENX2
 70
     0
  3
Hidden (2x) ____ ____ ____ ____ ____ ____ ____
 72
    65
 73
     2
 40
19.05
 49
12.7
 74
     0
 49
-6.349999999999999
 74
     0
  0
LTYPE
  5
96
330
5
100
AcDbSymbolTableRecord
100
AcDbLinetypeTableRecord
  2
PHANTOM
 70
     0
  3
Phantom ______  __  __  ______  __  __  ______
 72
    65
 73
     6
 40
63.5
 49
31.75
 74
     0
 49
-6.349999999999999
 74
     0
 49
6.349999999999999
 74
     0
 49
-6.349999999999999
 74
     0
 49
6.349999999999999
 74
     0
 49
-6.349999999999999
 74
     0
  0
LTYPE
  5
97
330
5
100
AcDbSymbolTableRecord
100
AcDbLinetypeTableRecord
  2
PHANTOM2
 70
     0
  3
Phantom (.5x) ___ _ _ ___ _ _ ___ _ _ ___ _ _
 72
    65
 73
     6
 40
31.75
 49
15.875
 74
     0
 49
-3.174999999999999
 74
     0
 49
3.174999999999999
 74
     0
 49
-3.174999999999999
 74
     0
 49
3.174999999999999
 74
     0
 49
-3.174999999999999
 74
     0
  0
LTYPE
  5
98
330
5
100
AcDbSymbolTableRecord
100
AcDbLinetypeTableRecord
  2
PHANTOMX2
 70
     0
  3
Phantom (2x) ____________    ____    ____   _
 72
    65
 73
     6
 40
127.0
 49
63.5
 74
     0
 49
-12.7
 74
     0
 49
12.7
 74
     0
 49
-12.7
 74
     0
 49
12.7
 74
     0
 49
-12.7
 74
     0
  0
LTYPE
  5
99
330
5
100
AcDbSymbolTableRecord
100
AcDbLinetypeTableRecord
  2
ACAD_ISO02W100
 70
     0
  3
ISO dash __ __ __ __ __ __ __ __ __ __ __ __ __
 72
    65
 73
     2
 40
15.0
 49
12.0
 74
     0
 49
-3.0
 74
     0
  0
LTYPE
  5
9A
330
5
100
AcDbSymbolTableRecord
100
AcDbLinetypeTableRecord
  2
ACAD_ISO03W100
 70
     0
  3
ISO dash space __    __    __    __    __    __
 72
    65
 73
     2
 40
30.0
 49
12.0
 74
     0
 49
-18.0
 74
     0
  0
LTYPE
  5
9B
330
5
100
AcDbSymbolTableRecord
100
AcDbLinetypeTableRecord
  2
ACAD_ISO04W100
 70
     0
  3
ISO long-dash dot ____ . ____ . ____ . ____ . _
 72
    65
 73
     4
 40
30.0
 49
24.0
 74
     0
 49
-3.0
 74
     0
 49
0.0
 74
     0
 49
-3.0
 74
     0
  0
LTYPE
  5
9C
330
5
100
AcDbSymbolTableRecord
100
AcDbLinetypeTableRecord
  2
ACAD_ISO05W100
 70
     0
  3
ISO long-dash double-dot ____ .. ____ .. ____ .
 72
    65
 73
     6
 40
33.0
 49
24.0
 74
     0
 49
-3.0
 74
     0
 49
0.0
 74
     0
 49
-3.0
 74
     0
 49
0.0
 74
     0
 49
-3.0
 74
     0
  0
LTYPE
  5
9D
330
5
100
AcDbSymbolTableRecord
100
AcDbLinetypeTableRecord
  2
ACAD_ISO06W100
 70
     0
  3
ISO long-dash triple-dot ____ ... ____ ... ____
 72
    65
 73
     8
 40
36.0
 49
24.0
 74
     0
 49
-3.0
 74
     0
 49
0.0
 74
     0
 49
-3.0
 74
     0
 49
0.0
 74
     0
 49
-3.0
 74
     0
 49
0.0
 74
     0
 49
-3.0
 74
     0
  0
LTYPE
  5
9E
330
5
100
AcDbSymbolTableRecord
100
AcDbLinetypeTableRecord
  2
ACAD_ISO07W100
 70
     0
  3
ISO dot . . . . . . . . . . . . . . . . . . . .
 72
    65
 73
     2
 40
3.0
 49
0.0
 74
     0
 49
-3.0
 74
     0
  0
LTYPE
  5
9F
330
5
100
AcDbSymbolTableRecord
100
AcDbLinetypeTableRecord
  2
ACAD_ISO08W100
 70
     0
  3
ISO long-dash short-dash ____ __ ____ __ ____ _
 72
    65
 73
     4
 40
36.0
 49
24.0
 74
     0
 49
-3.0
 74
     0
 49
6.0
 74
     0
 49
-3.0
 74
     0
  0
LTYPE
  5
A0
330
5
100
AcDbSymbolTableRecord
100
AcDbLinetypeTableRecord
  2
ACAD_ISO09W100
 70
     0
  3
ISO long-dash double-short-dash ____ __ __ ____
 72
    65
 73
     6
 40
45.0
 49
24.0
 74
     0
 49
-3.0
 74
     0
 49
6.0
 74
     0
 49
-3.0
 74
     0
 49
6.0
 74
     0
 49
-3.0
 74
     0
  0
LTYPE
  5
A1
330
5
100
AcDbSymbolTableRecord
100
AcDbLinetypeTableRecord
  2
ACAD_ISO10W100
 70
     0
  3
ISO dash dot __ . __ . __ . __ . __ . __ . __ .
 72
    65
 73
     4
 40
18.0
 49
12.0
 74
     0
 49
-3.0
 74
     0
 49
0.0
 74
     0
 49
-3.0
 74
     0
  0
LTYPE
  5
A2
330
5
100
AcDbSymbolTableRecord
100
AcDbLinetypeTableRecord
  2
ACAD_ISO11W100
 70
     0
  3
ISO double-dash dot __ __ . __ __ . __ __ . __ 
 72
    65
 73
     6
 40
33.0
 49
12.0
 74
     0
 49
-3.0
 74
     0
 49
12.0
 74
     0
 49
-3.0
 74
     0
 49
0.0
 74
     0
 49
-3.0
 74
     0
  0
LTYPE
  5
A3
330
5
100
AcDbSymbolTableRecord
100
AcDbLinetypeTableRecord
  2
ACAD_ISO12W100
 70
     0
  3
ISO dash double-dot __ . . __ . . __ . . __ . .
 72
    65
 73
     6
 40
21.0
 49
12.0
 74
     0
 49
-3.0
 74
     0
 49
0.0
 74
     0
 49
-3.0
 74
     0
 49
0.0
 74
     0
 49
-3.0
 74
     0
  0
LTYPE
  5
A4
330
5
100
AcDbSymbolTableRecord
100
AcDbLinetypeTableRecord
  2
ACAD_ISO13W100
 70
     0
  3
ISO double-dash double-dot __ __ . . __ __ . . 
 72
    65
 73
     8
 40
36.0
 49
12.0
 74
     0
 49
-3.0
 74
     0
 49
12.0
 74
     0
 49
-3.0
 74
     0
 49
0.0
 74
     0
 49
-3.0
 74
     0
 49
0.0
 74
     0
 49
-3.0
 74
     0
  0
LTYPE
  5
A5
330
5
100
AcDbSymbolTableRecord
100
AcDbLinetypeTableRecord
  2
ACAD_ISO14W100
 70
     0
  3
ISO dash triple-dot __ . . . __ . . . __ . . . 
 72
    65
 73
     8
 40
24.0
 49
12.0
 74
     0
 49
-3.0
 74
     0
 49
0.0
 74
     0
 49
-3.0
 74
     0
 49
0.0
 74
     0
 49
-3.0
 74
     0
 49
0.0
 74
     0
 49
-3.0
 74
     0
  0
LTYPE
  5
A6
330
5
100
AcDbSymbolTableRecord
100
AcDbLinetypeTableRecord
  2
ACAD_ISO15W100
 70
     0
  3
ISO double-dash triple-dot __ __ . . . __ __ . 
 72
    65
 73
    10
 40
39.0
 49
12.0
 74
     0
 49
-3.0
 74
     0
 49
12.0
 74
     0
 49
-3.0
 74
     0
 49
0.0
 74
     0
 49
-3.0
 74
     0
 49
0.0
 74
     0
 49
-3.0
 74
     0
 49
0.0
 74
     0
 49
-3.0
 74
     0
  0
LTYPE
  5
A9
330
5
100
AcDbSymbolTableRecord
100
AcDbLinetypeTableRecord
  2
FENCELINE1
 70
     0
  3
Fenceline circle ----0-----0----0-----0----0---
 72
    65
 73
     4
 40
36.83
 49
6.349999999999999
 74
     0
 49
-2.54
 74
     4
 75
   133
340
A8
 46
2.54
 50
0.0
 44
-2.54
 45
0.0
 49
-2.54
 74
     0
 49
25.4
 74
     0
  0
LTYPE
  5
AA
330
5
100
AcDbSymbolTableRecord
100
AcDbLinetypeTableRecord
  2
FENCELINE2
 70
     0
  3
Fenceline square ----[]-----[]----[]-----[]----
 72
    65
 73
     4
 40
36.83
 49
6.349999999999999
 74
     0
 49
-2.54
 74
     4
 75
   132
340
A8
 46
2.54
 50
0.0
 44
-2.54
 45
0.0
 49
-2.54
 74
     0
 49
25.4
 74
     0
  0
LTYPE
  5
AB
330
5
100
AcDbSymbolTableRecord
100
AcDbLinetypeTableRecord
  2
TRACKS
 70
     0
  3
Tracks -|-|-|-|-|-|-|-|-|-|-|-|-|-|-|-|-|-|-|-|
 72
    65
 73
     2
 40
7.62
 49
3.81
 74
     4
 75
   130
340
A8
 46
6.349999999999999
 50
0.0
 44
0.0
 45
0.0
 49
3.81
 74
     0
  0
LTYPE
  5
AC
330
5
100
AcDbSymbolTableRecord
100
AcDbLinetypeTableRecord
  2
BATTING
 70
     0
  3
Batting SSSSSSSSSSSSSSSSSSSSSSSSSSSSSSSSSSSSSSS
 72
    65
 73
     4
 40
10.16254
 49
0.00254
 74
     0
 49
-2.54
 74
     4
 75
   134
340
A8
 46
2.54
 50
0.0
 44
-2.54
 45
0.0
 49
-5.08
 74
     4
 75
   134
340
A8
 46
2.54
 50
180.0
 44
2.54
 45
0.0
 49
-2.54
 74
     0
  0
LTYPE
  5
AD
330
5
100
AcDbSymbolTableRecord
100
AcDbLinetypeTableRecord
  2
HOT_WATER_SUPPLY
 70
     0
  3
Hot water supply ---- HW ---- HW ---- HW ----
 72
    65
 73
     3
 40
22.86
 49
12.7
 74
     0
 49
-5.08
 74
     2
 75
     0
340
55
 46
2.54
 50
0.0
 44
-2.54
 45
-1.27
  9
HW
 49
-5.08
 74
     0
  0
LTYPE
  5
AE
330
5
100
AcDbSymbolTableRecord
100
AcDbLinetypeTableRecord
  2
GAS_LINE
 70
     0
  3
Gas line ----GAS----GAS----GAS----GAS----GAS---
 72
    65
 73
     3
 40
24.13
 49
12.7
 74
     0
 49
-5.08
 74
     2
 75
     0
340
55
 46
2.54
 50
0.0
 44
-2.54
 45
-1.27
  9
GAS
 49
-6.349999999999999
 74
     0
  0
LTYPE
  5
AF
330
5
100
AcDbSymbolTableRecord
100
AcDbLinetypeTableRecord
  2
ZIGZAG
 70
     0
  3
Zig zag /\/\/\/\/\/\/\/\/\/\/\/\/\/\/\/\/\/\/\/
 72
    65
 73
     4
 40
20.32254
 49
0.00254
 74
     0
 49
-5.08
 74
     4
 75
   131
340
A8
 46
5.08
 50
0.0
 44
-5.08
 45
0.0
 49
-10.16
 74
     4
 75
   131
340
A8
 46
5.08
 50
180.0
 44
5.08
 45
0.0
 49
-5.08
 74
     0
  0
LTYPE
  5
185
330
5
100
AcDbSymbolTableRecord
100
AcDbLinetypeTableRecord
  2
CONTINUOUS_ACAD
 70
     0
  3

 72
    65
 73
     0
 40
0.0
  0
ENDTAB
  0
TABLE
  2
LAYER
  5
2
330
0
100
AcDbSymbolTable
 70
   215
  0
LAYER
  5
54
330
2
100
AcDbSymbolTableRecord
100
AcDbLayerTableRecord
  2
0
 70
     0
 62
     7
  6
Continuous
370
    -3
390
F
  0
LAYER
  5
FF
330
2
100
AcDbSymbolTableRecord
100
AcDbLayerTableRecord
  2
Dimensions(ISO)
 70
     0
 62
     7
  6
Continuous
370
    25
390
F
  0
LAYER
  5
101
330
2
100
AcDbSymbolTableRecord
100
AcDbLayerTableRecord
  2
Hatch
 70
     0
 62
   179
  6
Continuous
370
     9
390
F
  0
LAYER
  5
106
330
2
100
AcDbSymbolTableRecord
100
AcDbLayerTableRecord
  2
Hidden Edges(ISO)
 70
     0
 62
     7
  6
DASHED
370
    35
390
F
  0
LAYER
  5
133
330
2
100
AcDbSymbolTableRecord
100
AcDbLayerTableRecord
  2
Sketch Geometry(ISO)
 70
     0
 62
     7
  6
Continuous
370
    50
390
F
  0
LAYER
  5
154
330
2
100
AcDbSymbolTableRecord
100
AcDbLayerTableRecord
  2
Symbols(ISO)
 70
     0
 62
     7
  6
Continuous
370
    25
390
F
  0
LAYER
  5
16B
330
2
100
AcDbSymbolTableRecord
100
AcDbLayerTableRecord
  2
Visible Edges(ISO)
 70
     0
 62
     7
  6
Continuous
370
    18
390
F
  0
LAYER
  5
171
330
2
100
AcDbSymbolTableRecord
100
AcDbLayerTableRecord
  2
Visible Tangent Edges(ISO)
 70
     0
 62
     7
  6
Continuous
370
    18
390
F
  0
LAYER
  5
4B5
330
2
100
AcDbSymbolTableRecord
100
AcDbLayerTableRecord
  2
Defpoints
 70
     0
 62
     7
  6
Continuous
290
     0
370
    -3
390
F
  0
ENDTAB
  0
TABLE
  2
STYLE
  5
3
330
0
100
AcDbSymbolTable
 70
    44
  0
STYLE
  5
55
330
3
100
AcDbSymbolTableRecord
100
AcDbTextStyleTableRecord
  2
Standard
 70
     0
 40
0.0
 41
1.0
 50
0.0
 71
     0
 42
0.2
  3
monotxt.shx
  4

  0
STYLE
  5
5A
330
3
100
AcDbSymbolTableRecord
100
AcDbTextStyleTableRecord
  2
Annotative
 70
     0
 40
0.0
 41
1.0
 50
0.0
 71
     0
 42
0.2
  3
txt
  4

1001
AcadAnnotative
1000
AnnotativeData
1002
{
1070
     1
1070
     1
1002
}
  0
STYLE
  5
A8
330
3
100
AcDbSymbolTableRecord
100
AcDbTextStyleTableRecord
  2

 70
     1
 40
0.0
 41
1.0
 50
0.0
 71
     0
 42
0.2
  3
ltypeshp.shx
  4

  0
STYLE
  5
186
330
3
100
AcDbSymbolTableRecord
100
AcDbTextStyleTableRecord
  2
Current-BSI
 70
     0
 40
0.0
 41
1.0
 50
0.0
 71
     0
 42
0.2
  3
ARIAL.TTF
  4

1001
ACAD
1000
Arial
1071
      256
  0
STYLE
  5
187
330
3
100
AcDbSymbolTableRecord
100
AcDbTextStyleTableRecord
  2
Current-ISO
 70
     0
 40
0.0
 41
1.0
 50
0.0
 71
     0
 42
0.2
  3
ARIAL.TTF
  4

1001
ACAD
1000
Arial
1071
      256
  0
STYLE
  5
188
330
3
100
AcDbSymbolTableRecord
100
AcDbTextStyleTableRecord
  2
Current-JIS
 70
     0
 40
0.0
 41
1.0
 50
0.0
 71
     0
 42
0.2
  3
ARIAL.TTF
  4

1001
ACAD
1000
Arial
1071
      256
  0
STYLE
  5
189
330
3
100
AcDbSymbolTableRecord
100
AcDbTextStyleTableRecord
  2
DEFAULT-ANSI
 70
     0
 40
0.0
 41
1.0
 50
0.0
 71
     0
 42
0.2
  3
ARIAL.TTF
  4

1001
ACAD
1000
Arial
1071
      256
  0
STYLE
  5
18A
330
3
100
AcDbSymbolTableRecord
100
AcDbTextStyleTableRecord
  2
DEFAULT-ANSIBigText
 70
     0
 40
0.0
 41
1.0
 50
0.0
 71
     0
 42
0.2
  3
ARIAL.TTF
  4

1001
ACAD
1000
Arial
1071
      256
  0
STYLE
  5
18B
330
3
100
AcDbSymbolTableRecord
100
AcDbTextStyleTableRecord
  2
DEFAULT-ANSIByLayer
 70
     0
 40
0.0
 41
1.0
 50
0.0
 71
     0
 42
0.2
  3
ARIAL.TTF
  4

1001
ACAD
1000
Arial
1071
      256
  0
STYLE
  5
18C
330
3
100
AcDbSymbolTableRecord
100
AcDbTextStyleTableRecord
  2
DEFAULT-BSI
 70
     0
 40
0.0
 41
1.0
 50
0.0
 71
     0
 42
0.2
  3
ARIAL.TTF
  4

1001
ACAD
1000
Arial
1071
      256
  0
STYLE
  5
18D
330
3
100
AcDbSymbolTableRecord
100
AcDbTextStyleTableRecord
  2
DEFAULT-BSIBigText
 70
     0
 40
0.0
 41
1.0
 50
0.0
 71
     0
 42
0.2
  3
ARIAL.TTF
  4

1001
ACAD
1000
Arial
1071
      256
  0
STYLE
  5
18E
330
3
100
AcDbSymbolTableRecord
100
AcDbTextStyleTableRecord
  2
DEFAULT-BSIByLayer
 70
     0
 40
0.0
 41
1.0
 50
0.0
 71
     0
 42
0.2
  3
ARIAL.TTF
  4

1001
ACAD
1000
Arial
1071
      256
  0
STYLE
  5
18F
330
3
100
AcDbSymbolTableRecord
100
AcDbTextStyleTableRecord
  2
DEFAULT-DIN
 70
     0
 40
0.0
 41
1.0
 50
0.0
 71
     0
 42
0.2
  3
ARIAL.TTF
  4

1001
ACAD
1000
Arial
1071
      256
  0
STYLE
  5
190
330
3
100
AcDbSymbolTableRecord
100
AcDbTextStyleTableRecord
  2
DEFAULT-DINBigText
 70
     0
 40
0.0
 41
1.0
 50
0.0
 71
     0
 42
0.2
  3
ARIAL.TTF
  4

1001
ACAD
1000
Arial
1071
      256
  0
STYLE
  5
191
330
3
100
AcDbSymbolTableRecord
100
AcDbTextStyleTableRecord
  2
DEFAULT-DINByLayer
 70
     0
 40
0.0
 41
1.0
 50
0.0
 71
     0
 42
0.2
  3
ARIAL.TTF
  4

1001
ACAD
1000
Arial
1071
      256
  0
STYLE
  5
192
330
3
100
AcDbSymbolTableRecord
100
AcDbTextStyleTableRecord
  2
DEFAULT-GB
 70
     0
 40
0.0
 41
1.0
 50
0.0
 71
     0
 42
0.2
  3
ARIAL.TTF
  4

1001
ACAD
1000
Arial
1071
      256
  0
STYLE
  5
193
330
3
100
AcDbSymbolTableRecord
100
AcDbTextStyleTableRecord
  2
DEFAULT-GBBigText
 70
     0
 40
0.0
 41
1.0
 50
0.0
 71
     0
 42
0.2
  3
ARIAL.TTF
  4

1001
ACAD
1000
Arial
1071
      256
  0
STYLE
  5
194
330
3
100
AcDbSymbolTableRecord
100
AcDbTextStyleTableRecord
  2
DEFAULT-GBByLayer
 70
     0
 40
0.0
 41
1.0
 50
0.0
 71
     0
 42
0.2
  3
ARIAL.TTF
  4

1001
ACAD
1000
Arial
1071
      256
  0
STYLE
  5
195
330
3
100
AcDbSymbolTableRecord
100
AcDbTextStyleTableRecord
  2
DEFAULT-ISO
 70
     0
 40
0.0
 41
1.0
 50
0.0
 71
     0
 42
0.2
  3
ARIAL.TTF
  4

1001
ACAD
1000
Arial
1071
      256
  0
STYLE
  5
196
330
3
100
AcDbSymbolTableRecord
100
AcDbTextStyleTableRecord
  2
DEFAULT-ISOByLayer
 70
     0
 40
0.0
 41
1.0
 50
0.0
 71
     0
 42
0.2
  3
ARIAL.TTF
  4

1001
ACAD
1000
Arial
1071
      256
  0
STYLE
  5
197
330
3
100
AcDbSymbolTableRecord
100
AcDbTextStyleTableRecord
  2
DEFAULT-JIS
 70
     0
 40
0.0
 41
1.0
 50
0.0
 71
     0
 42
0.2
  3
ARIAL.TTF
  4

1001
ACAD
1000
Arial
1071
      256
  0
STYLE
  5
198
330
3
100
AcDbSymbolTableRecord
100
AcDbTextStyleTableRecord
  2
DEFAULT-JISBigText
 70
     0
 40
0.0
 41
1.0
 50
0.0
 71
     0
 42
0.2
  3
ARIAL.TTF
  4

1001
ACAD
1000
Arial
1071
      256
  0
STYLE
  5
199
330
3
100
AcDbSymbolTableRecord
100
AcDbTextStyleTableRecord
  2
DEFAULT-JISByLayer
 70
     0
 40
0.0
 41
1.0
 50
0.0
 71
     0
 42
0.2
  3
ARIAL.TTF
  4

1001
ACAD
1000
Arial
1071
      256
  0
STYLE
  5
19A
330
3
100
AcDbSymbolTableRecord
100
AcDbTextStyleTableRecord
  2
MM-ANSI
 70
     0
 40
0.0
 41
1.0
 50
0.0
 71
     0
 42
0.2
  3
ARIAL.TTF
  4

1001
ACAD
1000
Arial
1071
      256
  0
STYLE
  5
19B
330
3
100
AcDbSymbolTableRecord
100
AcDbTextStyleTableRecord
  2
PANROMAN_51
 70
     0
 40
0.0
 41
1.0
 50
0.0
 71
     0
 42
0.2
  3

  4

  0
STYLE
  5
19C
330
3
100
AcDbSymbolTableRecord
100
AcDbTextStyleTableRecord
  2
PANROMAN_54
 70
     0
 40
0.0
 41
2.5
 50
0.0
 71
     0
 42
0.2
  3

  4

  0
STYLE
  5
19D
330
3
100
AcDbSymbolTableRecord
100
AcDbTextStyleTableRecord
  2
ROMANS
 70
     0
 40
0.0
 41
1.0
 50
0.0
 71
     0
 42
0.2
  3
romans.shx
  4

  0
STYLE
  5
19E
330
3
100
AcDbSymbolTableRecord
100
AcDbTextStyleTableRecord
  2
ROMANSDIMSTYLE
 70
     0
 40
0.0
 41
1.0
 50
0.0
 71
     0
 42
0.2
  3
romans.shx
  4

  0
STYLE
  5
19F
330
3
100
AcDbSymbolTableRecord
100
AcDbTextStyleTableRecord
  2
STANDARD_33
 70
     0
 40
0.0
 41
0.8000000119209289
 50
0.0
 71
     0
 42
0.2
  3
monotxt.shx
  4

  0
STYLE
  5
1A0
330
3
100
AcDbSymbolTableRecord
100
AcDbTextStyleTableRecord
  2
STANDARD_36
 70
     0
 40
0.0
 41
1.0
 50
0.0
 71
     0
 42
0.2
  3
monotxt.shx
  4

  0
STYLE
  5
1A1
330
3
100
AcDbSymbolTableRecord
100
AcDbTextStyleTableRecord
  2
STANDARD_60
 70
     0
 40
0.0
 41
1.0
 50
0.0
 71
     0
 42
0.2
  3
monotxt.shx
  4

  0
STYLE
  5
1A2
330
3
100
AcDbSymbolTableRecord
100
AcDbTextStyleTableRecord
  2
STANDARD_61
 70
     0
 40
0.0
 41
1.0
 50
0.0
 71
     0
 42
0.2
  3
monotxt.shx
  4

  0
STYLE
  5
1A3
330
3
100
AcDbSymbolTableRecord
100
AcDbTextStyleTableRecord
  2
STANDARDBigText
 70
     0
 40
0.0
 41
1.0
 50
0.0
 71
     0
 42
0.2
  3
monotxt.shx
  4

  0
STYLE
  5
1A4
330
3
100
AcDbSymbolTableRecord
100
AcDbTextStyleTableRecord
  2
STANDARDByLayer
 70
     0
 40
0.0
 41
1.0
 50
0.0
 71
     0
 42
0.2
  3
monotxt.shx
  4

  0
STYLE
  5
1A5
330
3
100
AcDbSymbolTableRecord
100
AcDbTextStyleTableRecord
  2
STANDARDDIA1
 70
     0
 40
0.0
 41
1.0
 50
0.0
 71
     0
 42
0.2
  3
monotxt.shx
  4

  0
STYLE
  5
1A6
330
3
100
AcDbSymbolTableRecord
100
AcDbTextStyleTableRecord
  2
STANDARDDIM0
 70
     0
 40
0.0
 41
1.0
 50
0.0
 71
     0
 42
0.2
  3
monotxt.shx
  4

  0
STYLE
  5
1A7
330
3
100
AcDbSymbolTableRecord
100
AcDbTextStyleTableRecord
  2
STANDARDDIM1
 70
     0
 40
0.0
 41
1.0
 50
0.0
 71
     0
 42
0.2
  3
monotxt.shx
  4

  0
STYLE
  5
1A8
330
3
100
AcDbSymbolTableRecord
100
AcDbTextStyleTableRecord
  2
STANDARDDIM2
 70
     0
 40
0.0
 41
1.0
 50
0.0
 71
     0
 42
0.2
  3
monotxt.shx
  4

  0
STYLE
  5
1A9
330
3
100
AcDbSymbolTableRecord
100
AcDbTextStyleTableRecord
  2
STANDARDSTANDARD
 70
     0
 40
0.0
 41
1.0
 50
0.0
 71
     0
 42
0.2
  3
monotxt.shx
  4

  0
STYLE
  5
1AA
330
3
100
AcDbSymbolTableRecord
100
AcDbTextStyleTableRecord
  2
X.X big gap & text
 70
     0
 40
0.0
 41
1.0
 50
0.0
 71
     0
 42
0.2
  3
ARIAL.TTF
  4

1001
ACAD
1000
Arial
1071
      256
  0
STYLE
  5
452
330
3
100
AcDbSymbolTableRecord
100
AcDbTextStyleTableRecord
  2
Text Style171
 70
     0
 40
0.0
 41
1.0
 50
0.0
 71
     0
 42
0.2
  3
romans.shx
  4

  0
STYLE
  5
456
330
3
100
AcDbSymbolTableRecord
100
AcDbTextStyleTableRecord
  2
Text Style168
 70
     0
 40
0.0
 41
1.0
 50
0.0
 71
     0
 42
0.2
  3
romans.shx
  4

  0
STYLE
  5
458
330
3
100
AcDbSymbolTableRecord
100
AcDbTextStyleTableRecord
  2
Text Style169
 70
     0
 40
0.0
 41
1.0
 50
0.0
 71
     0
 42
0.2
  3
romans.shx
  4

  0
STYLE
  5
45A
330
3
100
AcDbSymbolTableRecord
100
AcDbTextStyleTableRecord
  2
Text Style175
 70
     0
 40
0.0
 41
1.0
 50
0.0
 71
     0
 42
0.2
  3
RomanS.shx
  4

  0
ENDTAB
  0
TABLE
  2
VIEW
  5
6
330
0
100
AcDbSymbolTable
 70
     0
  0
ENDTAB
  0
TABLE
  2
UCS
  5
7
330
0
100
AcDbSymbolTable
 70
     0
  0
ENDTAB
  0
TABLE
  2
APPID
  5
9
330
0
100
AcDbSymbolTable
 70
     3
  0
APPID
  5
56
330
9
100
AcDbSymbolTableRecord
100
AcDbRegAppTableRecord
  2
ACAD
 70
     0
  0
APPID
  5
5E
330
9
100
AcDbSymbolTableRecord
100
AcDbRegAppTableRecord
  2
AcadAnnotative
 70
     0
  0
APPID
  5
970
330
9
100
AcDbSymbolTableRecord
100
AcDbRegAppTableRecord
  2
ACAD_MLEADERVER
 70
     0
  0
ENDTAB
  0
TABLE
  2
DIMSTYLE
  5
A
330
0
100
AcDbSymbolTable
 70
    82
100
AcDbDimStyleTable
 71
     2
340
1C2
340
58
  0
DIMSTYLE
105
58
330
A
100
AcDbSymbolTableRecord
100
AcDbDimStyleTableRecord
  2
Standard
 70
     0
 40
2.0
 41
2.5
340
55
342
1D9
  0
DIMSTYLE
105
59
330
A
100
AcDbSymbolTableRecord
100
AcDbDimStyleTableRecord
  2
Annotative
 70
     0
340
55
1001
AcadAnnotative
1000
AnnotativeData
1002
{
1070
     1
1070
     1
1002
}
  0
DIMSTYLE
105
1AB
330
A
100
AcDbSymbolTableRecord
100
AcDbDimStyleTableRecord
  2
BSI - Method 2
 70
     0
 40
2.0
 41
2.5
 42
0.5
 43
5.999999999999999
 44
2.999999999999999
 45
0.00000001
 46
10.0
 73
     0
 77
     1
 78
     8
 79
     2
140
2.5
143
0.03937
146
1.399999999999999
147
0.75
171
     3
172
     1
176
     7
177
     7
178
     7
179
     2
271
     2
272
     2
274
     3
278
    44
284
     8
285
     8
286
     8
340
186
371
    25
372
    25
  0
DIMSTYLE
105
1AC
330
A
100
AcDbSymbolTableRecord
100
AcDbDimStyleTableRecord
  2
BSI - Method 2$7
 70
     0
 40
2.0
 41
2.5
 42
0.5
 43
5.999999999999999
 44
2.999999999999999
 45
0.00000001
 46
10.0
 73
     0
 77
     1
 78
     8
 79
     2
140
2.5
143
0.03937
146
1.399999999999999
147
0.75
171
     3
172
     1
176
     7
177
     7
178
     7
179
     2
271
     2
272
     2
274
     3
278
    44
284
     8
285
     8
286
     8
340
186
371
    25
372
    25
  0
DIMSTYLE
105
1AD
330
A
100
AcDbSymbolTableRecord
100
AcDbDimStyleTableRecord
  2
BSI - Method 2BigText
 70
     0
 40
2.0
 41
5.0
 42
0.5
 43
5.999999999999999
 44
2.999999999999999
 45
0.00000001
 46
10.0
 73
     0
 77
     1
 78
     8
 79
     2
140
5.25
143
0.03937
146
0.6666666666666666
147
0.75
171
     3
172
     1
176
     7
177
     7
178
     7
179
     2
271
     2
272
     2
274
     3
278
    44
284
     8
285
     8
286
     8
340
18D
371
    25
372
    25
  0
DIMSTYLE
105
1AE
330
A
100
AcDbSymbolTableRecord
100
AcDbDimStyleTableRecord
  2
BSI - Method 2BigText$7
 70
     0
 40
2.0
 41
5.0
 42
0.5
 43
5.999999999999999
 44
2.999999999999999
 45
0.00000001
 46
10.0
 73
     0
 77
     1
 78
     8
 79
     2
140
5.25
143
0.03937
146
0.6666666666666666
147
0.75
171
     3
172
     1
176
     7
177
     7
178
     7
179
     2
271
     2
272
     2
274
     3
278
    44
284
     8
285
     8
286
     8
340
18D
371
    25
372
    25
  0
DIMSTYLE
105
1BE
330
A
100
AcDbSymbolTableRecord
100
AcDbDimStyleTableRecord
  2
DEFAULT-GB
 70
     0
 40
2.0
 41
4.0
 42
0.0
 43
5.999999999999999
 44
5.0
 45
0.00000001
 46
10.0
 73
     0
 74
     0
 77
     1
 78
     8
 79
     2
140
2.5
143
0.03937
146
1.399999999999999
147
0.75
171
     3
172
     1
176
     7
177
     7
178
     7
179
     3
271
     2
272
     2
274
     3
275
     1
285
     8
340
186
341
1AF
342
1AF
371
    25
372
    25
  0
DIMSTYLE
105
1BF
330
A
100
AcDbSymbolTableRecord
100
AcDbDimStyleTableRecord
  2
DEFAULT-GB$7
 70
     0
 40
2.0
 41
4.0
 42
0.0
 43
5.999999999999999
 44
5.0
 45
0.00000001
 46
10.0
 73
     0
 74
     0
 77
     1
 78
     8
 79
     2
140
2.5
143
0.03937
146
1.399999999999999
147
0.75
171
     3
172
     1
176
     7
177
     7
178
     7
179
     3
271
     2
272
     2
274
     3
275
     1
285
     8
340
186
341
1AF
342
1AF
371
    25
372
    25
  0
DIMSTYLE
105
1C0
330
A
100
AcDbSymbolTableRecord
100
AcDbDimStyleTableRecord
  2
DEFAULT-GBBigText
 70
     0
 40
2.0
 41
8.0
 42
0.0
 43
5.999999999999999
 44
5.0
 45
0.00000001
 46
10.0
 73
     0
 74
     0
 77
     1
 78
     8
 79
     2
140
5.25
143
0.03937
146
0.6666666666666666
147
0.75
171
     3
172
     1
176
     7
177
     7
178
     7
179
     3
271
     2
272
     2
274
     3
275
     1
285
     8
340
193
341
1AF
342
1AF
371
    25
372
    25
  0
DIMSTYLE
105
1C1
330
A
100
AcDbSymbolTableRecord
100
AcDbDimStyleTableRecord
  2
DEFAULT-GBBigText$7
 70
     0
 40
2.0
 41
8.0
 42
0.0
 43
5.999999999999999
 44
5.0
 45
0.00000001
 46
10.0
 73
     0
 74
     0
 77
     1
 78
     8
 79
     2
140
5.25
143
0.03937
146
0.6666666666666666
147
0.75
171
     3
172
     1
176
     7
177
     7
178
     7
179
     3
271
     2
272
     2
274
     3
275
     1
285
     8
340
193
341
1AF
342
1AF
371
    25
372
    25
  0
DIMSTYLE
105
1C2
102
{ACAD_REACTORS
330
4B3
330
598
330
67A
330
75C
330
83E
102
}
330
A
100
AcDbSymbolTableRecord
100
AcDbDimStyleTableRecord
  2
DEFAULT-ISO
 70
     0
 40
2.0
 41
2.5
 42
0.0
 43
5.999999999999999
 44
3.174999999999999
 45
0.00000001
 46
10.0
 73
     0
 74
     0
 77
     1
140
2.5
143
0.03937
146
1.399999999999999
147
0.762
171
     3
172
     1
176
     7
177
     7
178
     7
179
     2
271
     1
272
     2
274
     3
278
    44
340
186
371
    25
372
    25
  0
DIMSTYLE
105
1C3
330
A
100
AcDbSymbolTableRecord
100
AcDbDimStyleTableRecord
  2
DEFAULT-ISO$7
 70
     0
 40
2.0
 41
2.5
 42
0.0
 43
5.999999999999999
 44
3.174999999999999
 45
0.00000001
 46
10.0
 73
     0
 74
     0
 77
     1
140
2.5
143
0.03937
146
1.399999999999999
147
0.762
171
     3
172
     1
176
     7
177
     7
178
     7
179
     2
271
     1
272
     2
274
     3
278
    44
340
186
371
    25
372
    25
  0
DIMSTYLE
105
1C4
330
A
100
AcDbSymbolTableRecord
100
AcDbDimStyleTableRecord
  2
DEFAULT-ISOBigText
 70
     0
 40
2.0
 41
5.0
 42
0.0
 43
5.999999999999999
 44
3.174999999999999
 45
0.00000001
 46
10.0
 73
     0
 74
     0
 77
     1
140
7.5
143
0.03937
146
0.4666666666666667
147
0.762
171
     3
172
     1
176
     7
177
     7
178
     7
179
     2
271
     2
272
     2
274
     3
278
    44
340
1A3
371
    25
372
    25
  0
DIMSTYLE
105
1C5
330
A
100
AcDbSymbolTableRecord
100
AcDbDimStyleTableRecord
  2
DEFAULT-ISOBigText$7
 70
     0
 40
2.0
 41
5.0
 42
0.0
 43
5.999999999999999
 44
3.174999999999999
 45
0.00000001
 46
10.0
 73
     0
 74
     0
 77
     1
140
7.5
143
0.03937
146
0.4666666666666667
147
0.762
171
     3
172
     1
176
     7
177
     7
178
     7
179
     2
271
     2
272
     2
274
     3
278
    44
340
1A3
371
    25
372
    25
  0
DIMSTYLE
105
1C6
330
A
100
AcDbSymbolTableRecord
100
AcDbDimStyleTableRecord
  2
DEFAULT-JIS - Method 2
 70
     0
 40
2.0
 41
2.5
 42
0.0
 43
5.999999999999999
 44
3.174999999999999
 45
0.00000001
 46
10.0
 77
     1
 78
     8
 79
     2
140
4.5
143
0.03937
147
0.8
171
     3
172
     1
176
     7
177
     7
178
     7
271
     2
272
     2
274
     3
284
     8
286
     8
340
188
341
1C7
342
1C7
371
    25
372
    25
  0
DIMSTYLE
105
1CD
330
A
100
AcDbSymbolTableRecord
100
AcDbDimStyleTableRecord
  2
DEFAULT-JIS - Method 2$7
 70
     0
 40
2.0
 41
2.5
 42
0.0
 43
5.999999999999999
 44
3.174999999999999
 45
0.00000001
 46
10.0
 77
     1
 78
     8
 79
     2
140
4.5
143
0.03937
147
0.8
171
     3
172
     1
176
     7
177
     7
178
     7
271
     2
272
     2
274
     3
284
     8
286
     8
340
188
341
1C7
342
1C7
371
    25
372
    25
  0
DIMSTYLE
105
1CE
330
A
100
AcDbSymbolTableRecord
100
AcDbDimStyleTableRecord
  2
DEFAULT-JIS - Method 2BigText
 70
     0
 40
2.0
 41
5.0
 42
0.0
 43
5.999999999999999
 44
3.174999999999999
 45
0.00000001
 46
10.0
 77
     1
 78
     8
 79
     2
140
6.749999523162841
143
0.03937
146
0.666666713761698
147
0.8
171
     3
172
     1
176
     7
177
     7
178
     7
271
     2
272
     2
274
     3
284
     8
286
     8
340
198
341
1C7
342
1C7
371
    25
372
    25
  0
DIMSTYLE
105
1CF
330
A
100
AcDbSymbolTableRecord
100
AcDbDimStyleTableRecord
  2
DEFAULT-JIS - Method 2BigText$7
 70
     0
 40
2.0
 41
5.0
 42
0.0
 43
5.999999999999999
 44
3.174999999999999
 45
0.00000001
 46
10.0
 77
     1
 78
     8
 79
     2
140
6.749999523162841
143
0.03937
146
0.666666713761698
147
0.8
171
     3
172
     1
176
     7
177
     7
178
     7
271
     2
272
     2
274
     3
284
     8
286
     8
340
198
341
1C7
342
1C7
371
    25
372
    25
  0
DIMSTYLE
105
1D0
330
A
100
AcDbSymbolTableRecord
100
AcDbDimStyleTableRecord
  2
DIN - Other
 70
     0
 40
2.0
 41
2.5
 42
0.0
 43
5.999999999999999
 44
3.174999999999999
 45
0.00000001
 46
10.0
 77
     1
 78
     8
 79
     2
140
2.5
143
0.03937
146
1.399999999999999
147
0.8
171
     3
172
     1
176
     7
177
     7
178
     7
271
     2
272
     2
274
     3
278
    44
284
     8
286
     8
340
186
371
    25
372
    25
  0
DIMSTYLE
105
1D1
330
A
100
AcDbSymbolTableRecord
100
AcDbDimStyleTableRecord
  2
DIN - Other$7
 70
     0
 40
2.0
 41
2.5
 42
0.0
 43
5.999999999999999
 44
3.174999999999999
 45
0.00000001
 46
10.0
 77
     1
 78
     8
 79
     2
140
2.5
143
0.03937
146
1.399999999999999
147
0.8
171
     3
172
     1
176
     7
177
     7
178
     7
271
     2
272
     2
274
     3
278
    44
284
     8
286
     8
340
186
371
    25
372
    25
  0
DIMSTYLE
105
1D2
330
A
100
AcDbSymbolTableRecord
100
AcDbDimStyleTableRecord
  2
DIN - OtherBigText
 70
     0
 40
2.0
 41
5.0
 42
0.0
 43
5.999999999999999
 44
3.174999999999999
 45
0.00000001
 46
10.0
 77
     1
 78
     8
 79
     2
140
5.25
143
0.03937
146
0.6666666666666666
147
0.8
171
     3
172
     1
176
     7
177
     7
178
     7
271
     2
272
     2
274
     3
278
    44
284
     8
286
     8
340
190
371
    25
372
    25
  0
DIMSTYLE
105
1D3
330
A
100
AcDbSymbolTableRecord
100
AcDbDimStyleTableRecord
  2
DIN - OtherBigText$7
 70
     0
 40
2.0
 41
5.0
 42
0.0
 43
5.999999999999999
 44
3.174999999999999
 45
0.00000001
 46
10.0
 77
     1
 78
     8
 79
     2
140
5.25
143
0.03937
146
0.6666666666666666
147
0.8
171
     3
172
     1
176
     7
177
     7
178
     7
271
     2
272
     2
274
     3
278
    44
284
     8
286
     8
340
190
371
    25
372
    25
  0
DIMSTYLE
105
1D4
330
A
100
AcDbSymbolTableRecord
100
AcDbDimStyleTableRecord
  2
X . XXX in [mm]
 70
     0
  4
 mm
 40
2.0
 41
2.5
 42
2.387599999999999
 43
6.349999999999999
 44
3.174999999999999
 45
0.00000001
 46
10.0
 73
     0
 78
     4
 79
     1
140
3.04800009727478
144
0.0393700787401575
147
1.600199999999999
170
     1
176
     7
177
     7
178
     7
179
     1
271
     3
272
     2
284
     4
285
     8
286
     4
340
19A
371
    25
372
    25
  0
DIMSTYLE
105
1D5
330
A
100
AcDbSymbolTableRecord
100
AcDbDimStyleTableRecord
  2
X . XXX in [mm]$7
 70
     0
  4
 mm
 40
2.0
 41
2.5
 42
2.387599999999999
 43
6.349999999999999
 44
3.174999999999999
 45
0.00000001
 46
10.0
 73
     0
 78
     4
 79
     1
140
3.04800009727478
144
0.0393700787401575
147
1.600199999999999
170
     1
176
     7
177
     7
178
     7
179
     1
271
     3
272
     2
284
     4
285
     8
286
     4
340
19A
371
    25
372
    25
  0
DIMSTYLE
105
1D6
330
A
100
AcDbSymbolTableRecord
100
AcDbDimStyleTableRecord
  2
X . XXX in [mm]BigText
 70
     0
  4
 mm
 40
2.0
 41
5.0
 42
2.387599999999999
 43
6.349999999999999
 44
3.174999999999999
 45
0.00000001
 46
10.0
 73
     0
 78
     4
 79
     1
140
4.57200002670288
144
0.0393700787401575
146
0.6666666840491819
147
1.600199999999999
170
     1
176
     7
177
     7
178
     7
179
     1
271
     3
272
     2
284
     4
285
     8
286
     4
340
18A
371
    25
372
    25
  0
DIMSTYLE
105
1D7
330
A
100
AcDbSymbolTableRecord
100
AcDbDimStyleTableRecord
  2
X . XXX in [mm]BigText$7
 70
     0
  4
 mm
 40
2.0
 41
5.0
 42
2.387599999999999
 43
6.349999999999999
 44
3.174999999999999
 45
0.00000001
 46
10.0
 73
     0
 78
     4
 79
     1
140
4.57200002670288
144
0.0393700787401575
146
0.6666666840491819
147
1.600199999999999
170
     1
176
     7
177
     7
178
     7
179
     1
271
     3
272
     2
284
     4
285
     8
286
     4
340
18A
371
    25
372
    25
  0
DIMSTYLE
105
1D8
330
A
100
AcDbSymbolTableRecord
100
AcDbDimStyleTableRecord
  2
1_32 - FRACTION
 70
     0
 40
2.0
 41
2.5
340
55
342
1D9
  0
DIMSTYLE
105
1E0
330
A
100
AcDbSymbolTableRecord
100
AcDbDimStyleTableRecord
  2
1_64 - FRACTION
 70
     0
 40
2.0
 41
2.5
340
55
342
1D9
  0
DIMSTYLE
105
1E1
330
A
100
AcDbSymbolTableRecord
100
AcDbDimStyleTableRecord
  2
ANSI - ALIGNED
 70
     0
 40
2.0
 41
2.5
340
55
342
1D9
  0
DIMSTYLE
105
1E2
330
A
100
AcDbSymbolTableRecord
100
AcDbDimStyleTableRecord
  2
ANSI FRACTION - ALIGNED
 70
     0
 40
2.0
 41
2.5
340
55
342
1D9
  0
DIMSTYLE
105
1E3
330
A
100
AcDbSymbolTableRecord
100
AcDbDimStyleTableRecord
  2
DEFAULT-ANSI
 70
     0
 40
2.0
 41
2.5
340
55
342
1D9
  0
DIMSTYLE
105
1E4
330
A
100
AcDbSymbolTableRecord
100
AcDbDimStyleTableRecord
  2
DEFAULT-ANSI FRACTION
 70
     0
 40
2.0
 41
2.5
340
55
342
1D9
  0
DIMSTYLE
105
1E5
330
A
100
AcDbSymbolTableRecord
100
AcDbDimStyleTableRecord
  2
DEFAULT-BSI
 70
     0
 40
2.0
 41
2.5
340
55
342
1D9
  0
DIMSTYLE
105
1E6
330
A
100
AcDbSymbolTableRecord
100
AcDbDimStyleTableRecord
  2
DEFAULT-DIN
 70
     0
 40
2.0
 41
2.5
340
55
342
1D9
  0
DIMSTYLE
105
1E7
330
A
100
AcDbSymbolTableRecord
100
AcDbDimStyleTableRecord
  2
DEFAULT-DIN - Method 2a
 70
     0
 40
2.0
 41
2.5
340
55
342
1D9
  0
DIMSTYLE
105
1E8
330
A
100
AcDbSymbolTableRecord
100
AcDbDimStyleTableRecord
  2
DEFAULT-DIN - Method 2b
 70
     0
 40
2.0
 41
2.5
340
55
342
1D9
  0
DIMSTYLE
105
1E9
330
A
100
AcDbSymbolTableRecord
100
AcDbDimStyleTableRecord
  2
DEFAULT-ISO-Method 1b
 70
     0
 40
2.0
 41
2.5
340
55
342
1D9
  0
DIMSTYLE
105
1EA
330
A
100
AcDbSymbolTableRecord
100
AcDbDimStyleTableRecord
  2
DEFAULT-ISO-Method 2a
 70
     0
 40
2.0
 41
2.5
340
55
342
1D9
  0
DIMSTYLE
105
1EB
330
A
100
AcDbSymbolTableRecord
100
AcDbDimStyleTableRecord
  2
DEFAULT-ISO-Method 2b
 70
     0
 40
2.0
 41
2.5
340
55
342
1D9
  0
DIMSTYLE
105
1EC
330
A
100
AcDbSymbolTableRecord
100
AcDbDimStyleTableRecord
  2
DEFAULT-JIS
 70
     0
 40
2.0
 41
2.5
340
55
342
1D9
  0
DIMSTYLE
105
1ED
330
A
100
AcDbSymbolTableRecord
100
AcDbDimStyleTableRecord
  2
DEFAULT-JIS - Method 1b
 70
     0
 40
2.0
 41
2.5
340
55
342
1D9
  0
DIMSTYLE
105
1EE
330
A
100
AcDbSymbolTableRecord
100
AcDbDimStyleTableRecord
  2
DIA1
 70
     0
 40
2.0
 41
2.5
340
55
342
1D9
  0
DIMSTYLE
105
1EF
330
A
100
AcDbSymbolTableRecord
100
AcDbDimStyleTableRecord
  2
DIM0
 70
     0
 40
2.0
 41
2.5
340
55
342
1D9
  0
DIMSTYLE
105
1F0
330
A
100
AcDbSymbolTableRecord
100
AcDbDimStyleTableRecord
  2
DIM1
 70
     0
 40
2.0
 41
2.5
340
55
342
1D9
  0
DIMSTYLE
105
1F1
330
A
100
AcDbSymbolTableRecord
100
AcDbDimStyleTableRecord
  2
DIM2
 70
     0
 40
2.0
 41
2.5
340
55
342
1D9
  0
DIMSTYLE
105
1F2
330
A
100
AcDbSymbolTableRecord
100
AcDbDimStyleTableRecord
  2
DIMSTYLE
 70
     0
 40
2.0
 41
2.5
340
55
342
1D9
  0
DIMSTYLE
105
1FD
330
A
100
AcDbSymbolTableRecord
100
AcDbDimStyleTableRecord
  2
Leader-Datum(ANSI)
 70
     0
 40
2.0
 41
2.5
340
55
342
1D9
  0
DIMSTYLE
105
1FE
330
A
100
AcDbSymbolTableRecord
100
AcDbDimStyleTableRecord
  2
Leader-Datum(BSI)
 70
     0
 40
2.0
 41
2.5
340
55
342
1D9
  0
DIMSTYLE
105
1FF
330
A
100
AcDbSymbolTableRecord
100
AcDbDimStyleTableRecord
  2
Leader-Datum(DIN)
 70
     0
 40
2.0
 41
2.5
340
55
342
1D9
  0
DIMSTYLE
105
221
330
A
100
AcDbSymbolTableRecord
100
AcDbDimStyleTableRecord
  2
Leader-Datum(GB)
 70
     0
 40
2.0
 41
4.0
340
55
342
1D9
  0
DIMSTYLE
105
222
330
A
100
AcDbSymbolTableRecord
100
AcDbDimStyleTableRecord
  2
Leader-Datum(ISO)
 70
     0
 40
2.0
 41
2.5
340
55
342
1D9
  0
DIMSTYLE
105
223
330
A
100
AcDbSymbolTableRecord
100
AcDbDimStyleTableRecord
  2
Leader-Datum(JIS)
 70
     0
 40
2.0
 41
2.5
340
55
342
1D9
  0
DIMSTYLE
105
224
330
A
100
AcDbSymbolTableRecord
100
AcDbDimStyleTableRecord
  2
Leader-Dot(ANSI)
 70
     0
 40
2.0
 41
2.5
340
55
342
1D9
  0
DIMSTYLE
105
225
330
A
100
AcDbSymbolTableRecord
100
AcDbDimStyleTableRecord
  2
Leader-Dot(BSI)
 70
     0
 40
2.0
 41
2.5
340
55
342
1D9
  0
DIMSTYLE
105
226
330
A
100
AcDbSymbolTableRecord
100
AcDbDimStyleTableRecord
  2
Leader-Dot(DIN)
 70
     0
 40
2.0
 41
2.5
340
55
342
1D9
  0
DIMSTYLE
105
227
330
A
100
AcDbSymbolTableRecord
100
AcDbDimStyleTableRecord
  2
Leader-Dot(GB)
 70
     0
 40
2.0
 41
4.0
340
55
342
1D9
  0
DIMSTYLE
105
228
330
A
100
AcDbSymbolTableRecord
100
AcDbDimStyleTableRecord
  2
Leader-Dot(ISO)
 70
     0
 40
2.0
 41
2.5
340
55
342
1D9
  0
DIMSTYLE
105
229
330
A
100
AcDbSymbolTableRecord
100
AcDbDimStyleTableRecord
  2
Leader-Dot(JIS)
 70
     0
 40
2.0
 41
2.5
340
55
342
1D9
  0
DIMSTYLE
105
22A
330
A
100
AcDbSymbolTableRecord
100
AcDbDimStyleTableRecord
  2
Leader-OriginIndicator(ANSI)
 70
     0
 40
2.0
 41
2.5
340
55
342
1D9
  0
DIMSTYLE
105
22B
330
A
100
AcDbSymbolTableRecord
100
AcDbDimStyleTableRecord
  2
Leader-OriginIndicator(BSI)
 70
     0
 40
2.0
 41
2.5
340
55
342
1D9
  0
DIMSTYLE
105
22C
330
A
100
AcDbSymbolTableRecord
100
AcDbDimStyleTableRecord
  2
Leader-OriginIndicator(DIN)
 70
     0
 40
2.0
 41
2.5
340
55
342
1D9
  0
DIMSTYLE
105
22D
330
A
100
AcDbSymbolTableRecord
100
AcDbDimStyleTableRecord
  2
Leader-OriginIndicator(GB)
 70
     0
 40
2.0
 41
4.0
340
55
342
1D9
  0
DIMSTYLE
105
22E
330
A
100
AcDbSymbolTableRecord
100
AcDbDimStyleTableRecord
  2
Leader-OriginIndicator(ISO)
 70
     0
 40
2.0
 41
2.5
340
55
342
1D9
  0
DIMSTYLE
105
22F
330
A
100
AcDbSymbolTableRecord
100
AcDbDimStyleTableRecord
  2
Leader-OriginIndicator(JIS)
 70
     0
 40
2.0
 41
2.5
340
55
342
1D9
  0
DIMSTYLE
105
230
330
A
100
AcDbSymbolTableRecord
100
AcDbDimStyleTableRecord
  2
Leader(ANSI)
 70
     0
 40
2.0
 41
2.5
340
55
342
1D9
  0
DIMSTYLE
105
231
330
A
100
AcDbSymbolTableRecord
100
AcDbDimStyleTableRecord
  2
Leader(BSI)
 70
     0
 40
2.0
 41
2.5
340
55
342
1D9
  0
DIMSTYLE
105
232
330
A
100
AcDbSymbolTableRecord
100
AcDbDimStyleTableRecord
  2
Leader(DIN)
 70
     0
 40
2.0
 41
2.5
340
55
342
1D9
  0
DIMSTYLE
105
233
330
A
100
AcDbSymbolTableRecord
100
AcDbDimStyleTableRecord
  2
Leader(GB)
 70
     0
 40
2.0
 41
4.0
340
55
342
1D9
  0
DIMSTYLE
105
234
330
A
100
AcDbSymbolTableRecord
100
AcDbDimStyleTableRecord
  2
Leader(ISO)
 70
     0
 40
2.0
 41
2.5
340
55
342
1D9
  0
DIMSTYLE
105
235
330
A
100
AcDbSymbolTableRecord
100
AcDbDimStyleTableRecord
  2
Leader(JIS)
 70
     0
 40
2.0
 41
2.5
340
55
342
1D9
  0
DIMSTYLE
105
236
330
A
100
AcDbSymbolTableRecord
100
AcDbDimStyleTableRecord
  2
MM-ANSI
 70
     0
 40
2.0
 41
2.5
340
55
342
1D9
  0
DIMSTYLE
105
237
330
A
100
AcDbSymbolTableRecord
100
AcDbDimStyleTableRecord
  2
X . XX mm [in]
 70
     0
 40
2.0
 41
2.5
340
55
342
1D9
  0
DIMSTYLE
105
238
330
A
100
AcDbSymbolTableRecord
100
AcDbDimStyleTableRecord
  2
X . XXX
 70
     0
 40
2.0
 41
2.5
340
55
342
1D9
  0
DIMSTYLE
105
239
330
A
100
AcDbSymbolTableRecord
100
AcDbDimStyleTableRecord
  2
X . XXX - Deviation Tol
 70
     0
 40
2.0
 41
2.5
340
55
342
1D9
  0
DIMSTYLE
105
23A
330
A
100
AcDbSymbolTableRecord
100
AcDbDimStyleTableRecord
  2
X . XXX - Limits Stacked
 70
     0
 40
2.0
 41
2.5
340
55
342
1D9
  0
DIMSTYLE
105
23B
330
A
100
AcDbSymbolTableRecord
100
AcDbDimStyleTableRecord
  2
X.X big gap & text
 70
     0
 40
2.0
 41
2.5
340
55
342
1D9
  0
DIMSTYLE
105
23C
330
A
100
AcDbSymbolTableRecord
100
AcDbDimStyleTableRecord
  2
X.XXX
 70
     0
 40
2.0
 41
2.5
340
55
342
1D9
  0
DIMSTYLE
105
23D
330
A
100
AcDbSymbolTableRecord
100
AcDbDimStyleTableRecord
  2
X.XXX +_- tolerance
 70
     0
 40
2.0
 41
2.5
340
55
342
1D9
  0
DIMSTYLE
105
23E
330
A
100
AcDbSymbolTableRecord
100
AcDbDimStyleTableRecord
  2
X.XXX +tolerance_-tolerance
 70
     0
 40
2.0
 41
2.5
340
55
342
1D9
  0
DIMSTYLE
105
23F
330
A
100
AcDbSymbolTableRecord
100
AcDbDimStyleTableRecord
  2
X.XXX mm[inch]
 70
     0
 40
2.0
 41
2.5
340
55
342
1D9
  0
DIMSTYLE
105
240
330
A
100
AcDbSymbolTableRecord
100
AcDbDimStyleTableRecord
  2
X.XXX radial
 70
     0
 40
2.0
 41
2.5
340
55
342
1D9
  0
DIMSTYLE
105
241
330
A
100
AcDbSymbolTableRecord
100
AcDbDimStyleTableRecord
  2
X.XXX small tolerance
 70
     0
 40
2.0
 41
2.5
340
55
342
1D9
  0
ENDTAB
  0
TABLE
  2
BLOCK_RECORD
  5
1
330
0
100
AcDbSymbolTable
 70
    12
  0
BLOCK_RECORD
  5
6C
330
1
100
AcDbSymbolTableRecord
100
AcDbBlockTableRecord
  2
*Model_Space
340
6F
  0
BLOCK_RECORD
  5
68
330
1
100
AcDbSymbolTableRecord
100
AcDbBlockTableRecord
  2
*Paper_Space
340
6B
  0
BLOCK_RECORD
  5
70
330
1
100
AcDbSymbolTableRecord
100
AcDbBlockTableRecord
  2
*Paper_Space0
340
73
  0
BLOCK_RECORD
  5
1AF
330
1
100
AcDbSymbolTableRecord
100
AcDbBlockTableRecord
  2
Filled-1
340
0
  0
BLOCK_RECORD
  5
1C7
330
1
100
AcDbSymbolTableRecord
100
AcDbBlockTableRecord
  2
_Open
340
0
  0
BLOCK_RECORD
  5
1D9
330
1
100
AcDbSymbolTableRecord
100
AcDbBlockTableRecord
  2
_Closed
340
0
  0
BLOCK_RECORD
  5
1F3
330
1
100
AcDbSymbolTableRecord
100
AcDbBlockTableRecord
  2
DatumFilled45
340
0
  0
BLOCK_RECORD
  5
200
330
1
100
AcDbSymbolTableRecord
100
AcDbBlockTableRecord
  2
DatumThickLine
340
0
  0
BLOCK_RECORD
  5
242
330
1
100
AcDbSymbolTableRecord
100
AcDbBlockTableRecord
  2
Borders PCH WEB A4
340
0
102
{BLKREFS
331
460
102
}
  0
BLOCK_RECORD
  5
4B6
330
1
100
AcDbSymbolTableRecord
100
AcDbBlockTableRecord
  2
*D7
340
0
  0
BLOCK_RECORD
  5
599
330
1
100
AcDbSymbolTableRecord
100
AcDbBlockTableRecord
  2
*D8
340
0
  0
BLOCK_RECORD
  5
67B
330
1
100
AcDbSymbolTableRecord
100
AcDbBlockTableRecord
  2
*D9
340
0
  0
BLOCK_RECORD
  5
75D
330
1
100
AcDbSymbolTableRecord
100
AcDbBlockTableRecord
  2
*D10
340
0
  0
BLOCK_RECORD
  5
83F
330
1
100
AcDbSymbolTableRecord
100
AcDbBlockTableRecord
  2
*D11
340
0
  0
ENDTAB
  0
ENDSEC
  0
SECTION
  2
BLOCKS
  0
BLOCK
  5
6D
330
6C
100
AcDbEntity
  8
0
100
AcDbBlockBegin
  2
*Model_Space
 70
     0
 10
0.0
 20
0.0
 30
0.0
  3
*Model_Space
  1

  0
ENDBLK
  5
6E
330
6C
100
AcDbEntity
  8
0
100
AcDbBlockEnd
  0
BLOCK
  5
69
330
68
100
AcDbEntity
 67
     1
  8
0
100
AcDbBlockBegin
  2
*Paper_Space
 70
     0
 10
0.0
 20
0.0
 30
0.0
  3
*Paper_Space
  1

  0
ENDBLK
  5
6A
330
68
100
AcDbEntity
 67
     1
  8
0
100
AcDbBlockEnd
  0
BLOCK
  5
71
330
70
100
AcDbEntity
 67
     1
  8
0
100
AcDbBlockBegin
  2
*Paper_Space0
 70
     0
 10
0.0
 20
0.0
 30
0.0
  3
*Paper_Space0
  1

  0
ENDBLK
  5
72
330
70
100
AcDbEntity
 67
     1
  8
0
100
AcDbBlockEnd
  0
BLOCK
  5
1B0
330
1AF
100
AcDbEntity
  8
0
100
AcDbBlockBegin
  2
Filled-1
 70
     0
 10
0.0
 20
0.0
 30
0.0
  3
Filled-1
  1

  0
LINE
  5
1B2
330
1AF
100
AcDbEntity
  8
0
 62
     0
100
AcDbLine
 10
-1.0
 20
0.0
 30
0.0
 11
0.0
 21
0.0
 31
0.0
  0
POLYLINE
  5
1B4
330
1AF
100
AcDbEntity
  8
0
 62
     0
100
AcDb2dPolyline
 66
     1
 10
0.0
 20
0.0
 30
0.0
 70
   128
  0
VERTEX
  5
1B5
330
1B4
100
AcDbEntity
  8
0
 62
     0
100
AcDbVertex
100
AcDb2dVertex
 10
-1.0
 20
-0.125
 30
0.0
  0
VERTEX
  5
1B6
330
1B4
100
AcDbEntity
  8
0
 62
     0
100
AcDbVertex
100
AcDb2dVertex
 10
0.0
 20
0.0
 30
0.0
  0
VERTEX
  5
1B8
330
1B4
100
AcDbEntity
  8
0
 62
     0
100
AcDbVertex
100
AcDb2dVertex
 10
-1.0
 20
0.125
 30
0.0
  0
VERTEX
  5
1B9
330
1B4
100
AcDbEntity
  8
0
 62
     0
100
AcDbVertex
100
AcDb2dVertex
 10
-1.0
 20
-0.125
 30
0.0
  0
SEQEND
  5
1B7
330
1B4
100
AcDbEntity
  8
0
 62
     0
  0
SOLID
  5
1BA
330
1AF
100
AcDbEntity
  8
0
 62
     0
100
AcDbTrace
 10
-1.0
 20
-0.125
 30
0.0
 11
0.0
 21
0.0
 31
0.0
 12
-1.0
 22
0.125
 32
0.0
 13
-1.0
 23
-0.125
 33
0.0
  0
LINE
  5
1BB
330
1AF
100
AcDbEntity
  8
0
 62
     0
100
AcDbLine
 10
-1.0
 20
-0.125
 30
0.0
 11
0.0
 21
0.0
 31
0.0
  0
LINE
  5
1BC
330
1AF
100
AcDbEntity
  8
0
 62
     0
100
AcDbLine
 10
0.0
 20
0.0
 30
0.0
 11
-1.0
 21
0.125
 31
0.0
  0
LINE
  5
1BD
330
1AF
100
AcDbEntity
  8
0
 62
     0
100
AcDbLine
 10
-1.0
 20
0.125
 30
0.0
 11
-1.0
 21
-0.125
 31
0.0
  0
ENDBLK
  5
1B1
330
1AF
100
AcDbEntity
  8
0
100
AcDbBlockEnd
  0
BLOCK
  5
1CB
330
1C7
100
AcDbEntity
  8
0
100
AcDbBlockBegin
  2
_Open
 70
     0
 10
0.0
 20
0.0
 30
0.0
  3
_Open
  1

  0
LINE
  5
1C8
330
1C7
100
AcDbEntity
  8
0
  6
ByBlock
 62
     0
370
    -2
100
AcDbLine
 10
-1.0
 20
0.1666666666666666
 30
0.0
 11
0.0
 21
0.0
 31
0.0
  0
LINE
  5
1C9
330
1C7
100
AcDbEntity
  8
0
  6
ByBlock
 62
     0
370
    -2
100
AcDbLine
 10
-1.0
 20
-0.1666666666666666
 30
0.0
 11
0.0
 21
0.0
 31
0.0
  0
LINE
  5
1CA
330
1C7
100
AcDbEntity
  8
0
  6
ByBlock
 62
     0
370
    -2
100
AcDbLine
 10
0.0
 20
0.0
 30
0.0
 11
-1.0
 21
0.0
 31
0.0
  0
ENDBLK
  5
1CC
330
1C7
100
AcDbEntity
  8
0
100
AcDbBlockEnd
  0
BLOCK
  5
1DE
330
1D9
100
AcDbEntity
  8
0
100
AcDbBlockBegin
  2
_Closed
 70
     0
 10
0.0
 20
0.0
 30
0.0
  3
_Closed
  1

  0
LINE
  5
1DA
330
1D9
100
AcDbEntity
  8
0
  6
ByBlock
 62
     0
370
    -2
100
AcDbLine
 10
-1.0
 20
0.1666666666666666
 30
0.0
 11
0.0
 21
0.0
 31
0.0
  0
LINE
  5
1DB
330
1D9
100
AcDbEntity
  8
0
  6
ByBlock
 62
     0
370
    -2
100
AcDbLine
 10
0.0
 20
0.0
 30
0.0
 11
-1.0
 21
-0.1666666666666666
 31
0.0
  0
LINE
  5
1DC
330
1D9
100
AcDbEntity
  8
0
  6
ByBlock
 62
     0
370
    -2
100
AcDbLine
 10
-1.0
 20
0.1666666666666666
 30
0.0
 11
-1.0
 21
-0.1666666666666666
 31
0.0
  0
LINE
  5
1DD
330
1D9
100
AcDbEntity
  8
0
  6
ByBlock
 62
     0
370
    -2
100
AcDbLine
 10
0.0
 20
0.0
 30
0.0
 11
-1.0
 21
0.0
 31
0.0
  0
ENDBLK
  5
1DF
330
1D9
100
AcDbEntity
  8
0
100
AcDbBlockEnd
  0
BLOCK
  5
1F4
330
1F3
100
AcDbEntity
  8
0
100
AcDbBlockBegin
  2
DatumFilled45
 70
     0
 10
0.0
 20
0.0
 30
0.0
  3
DatumFilled45
  1

  0
POLYLINE
  5
1F6
330
1F3
100
AcDbEntity
  8
0
 62
     0
100
AcDb2dPolyline
 66
     1
 10
0.0
 20
0.0
 30
0.0
 70
   128
  0
VERTEX
  5
1F7
330
1F6
100
AcDbEntity
  8
0
 62
     0
100
AcDbVertex
100
AcDb2dVertex
 10
0.0
 20
1.0
 30
0.0
  0
VERTEX
  5
1F8
330
1F6
100
AcDbEntity
  8
0
 62
     0
100
AcDbVertex
100
AcDb2dVertex
 10
0.0
 20
-1.0
 30
0.0
  0
VERTEX
  5
1FA
330
1F6
100
AcDbEntity
  8
0
 62
     0
100
AcDbVertex
100
AcDb2dVertex
 10
-1.0
 20
0.0
 30
0.0
  0
VERTEX
  5
1FB
330
1F6
100
AcDbEntity
  8
0
 62
     0
100
AcDbVertex
100
AcDb2dVertex
 10
0.0
 20
1.0
 30
0.0
  0
SEQEND
  5
1F9
330
1F6
100
AcDbEntity
  8
0
 62
     0
  0
SOLID
  5
1FC
330
1F3
100
AcDbEntity
  8
0
 62
     0
100
AcDbTrace
 10
0.0
 20
1.0
 30
0.0
 11
0.0
 21
-1.0
 31
0.0
 12
-1.0
 22
0.0
 32
0.0
 13
0.0
 23
1.0
 33
0.0
  0
ENDBLK
  5
1F5
330
1F3
100
AcDbEntity
  8
0
100
AcDbBlockEnd
  0
BLOCK
  5
201
330
200
100
AcDbEntity
  8
0
100
AcDbBlockBegin
  2
DatumThickLine
 70
     0
 10
0.0
 20
0.0
 30
0.0
  3
DatumThickLine
  1

  0
POLYLINE
  5
203
330
200
100
AcDbEntity
  8
0
 62
     0
100
AcDb2dPolyline
 66
     1
 10
0.0
 20
0.0
 30
0.0
 70
   128
  0
VERTEX
  5
204
330
203
100
AcDbEntity
  8
0
 62
     0
100
AcDbVertex
100
AcDb2dVertex
 10
-0.25
 20
1.0
 30
0.0
  0
VERTEX
  5
205
330
203
100
AcDbEntity
  8
0
 62
     0
100
AcDbVertex
100
AcDb2dVertex
 10
-0.25
 20
-1.0
 30
0.0
  0
VERTEX
  5
207
330
203
100
AcDbEntity
  8
0
 62
     0
100
AcDbVertex
100
AcDb2dVertex
 10
-0.5
 20
-1.0
 30
0.0
  0
VERTEX
  5
208
330
203
100
AcDbEntity
  8
0
 62
     0
100
AcDbVertex
100
AcDb2dVertex
 10
-0.25
 20
1.0
 30
0.0
  0
SEQEND
  5
206
330
203
100
AcDbEntity
  8
0
 62
     0
  0
SOLID
  5
209
330
200
100
AcDbEntity
  8
0
 62
     0
100
AcDbTrace
 10
-0.25
 20
1.0
 30
0.0
 11
-0.25
 21
-1.0
 31
0.0
 12
-0.5
 22
-1.0
 32
0.0
 13
-0.25
 23
1.0
 33
0.0
  0
POLYLINE
  5
20A
330
200
100
AcDbEntity
  8
0
 62
     0
100
AcDb2dPolyline
 66
     1
 10
0.0
 20
0.0
 30
0.0
 70
   128
  0
VERTEX
  5
20B
330
20A
100
AcDbEntity
  8
0
 62
     0
100
AcDbVertex
100
AcDb2dVertex
 10
-0.25
 20
1.0
 30
0.0
  0
VERTEX
  5
20C
330
20A
100
AcDbEntity
  8
0
 62
     0
100
AcDbVertex
100
AcDb2dVertex
 10
-0.5
 20
-1.0
 30
0.0
  0
VERTEX
  5
20E
330
20A
100
AcDbEntity
  8
0
 62
     0
100
AcDbVertex
100
AcDb2dVertex
 10
-0.5
 20
-1.0
 30
0.0
  0
VERTEX
  5
20F
330
20A
100
AcDbEntity
  8
0
 62
     0
100
AcDbVertex
100
AcDb2dVertex
 10
-0.25
 20
1.0
 30
0.0
  0
SEQEND
  5
20D
330
20A
100
AcDbEntity
  8
0
 62
     0
  0
SOLID
  5
210
330
200
100
AcDbEntity
  8
0
 62
     0
100
AcDbTrace
 10
-0.25
 20
1.0
 30
0.0
 11
-0.5
 21
-1.0
 31
0.0
 12
-0.5
 22
-1.0
 32
0.0
 13
-0.25
 23
1.0
 33
0.0
  0
POLYLINE
  5
211
330
200
100
AcDbEntity
  8
0
 62
     0
100
AcDb2dPolyline
 66
     1
 10
0.0
 20
0.0
 30
0.0
 70
   128
  0
VERTEX
  5
212
330
211
100
AcDbEntity
  8
0
 62
     0
100
AcDbVertex
100
AcDb2dVertex
 10
-0.25
 20
1.0
 30
0.0
  0
VERTEX
  5
213
330
211
100
AcDbEntity
  8
0
 62
     0
100
AcDbVertex
100
AcDb2dVertex
 10
-0.5
 20
-1.0
 30
0.0
  0
VERTEX
  5
215
330
211
100
AcDbEntity
  8
0
 62
     0
100
AcDbVertex
100
AcDb2dVertex
 10
-0.5
 20
1.0
 30
0.0
  0
VERTEX
  5
216
330
211
100
AcDbEntity
  8
0
 62
     0
100
AcDbVertex
100
AcDb2dVertex
 10
-0.25
 20
1.0
 30
0.0
  0
SEQEND
  5
214
330
211
100
AcDbEntity
  8
0
 62
     0
  0
SOLID
  5
217
330
200
100
AcDbEntity
  8
0
 62
     0
100
AcDbTrace
 10
-0.25
 20
1.0
 30
0.0
 11
-0.5
 21
-1.0
 31
0.0
 12
-0.5
 22
1.0
 32
0.0
 13
-0.25
 23
1.0
 33
0.0
  0
POLYLINE
  5
218
330
200
100
AcDbEntity
  8
0
 62
     0
100
AcDb2dPolyline
 66
     1
 10
0.0
 20
0.0
 30
0.0
 70
   128
  0
VERTEX
  5
219
330
218
100
AcDbEntity
  8
0
 62
     0
100
AcDbVertex
100
AcDb2dVertex
 10
-0.25
 20
1.0
 30
0.0
  0
VERTEX
  5
21A
330
218
100
AcDbEntity
  8
0
 62
     0
100
AcDbVertex
100
AcDb2dVertex
 10
-0.5
 20
1.0
 30
0.0
  0
VERTEX
  5
21C
330
218
100
AcDbEntity
  8
0
 62
     0
100
AcDbVertex
100
AcDb2dVertex
 10
-0.25
 20
1.0
 30
0.0
  0
VERTEX
  5
21D
330
218
100
AcDbEntity
  8
0
 62
     0
100
AcDbVertex
100
AcDb2dVertex
 10
-0.25
 20
1.0
 30
0.0
  0
SEQEND
  5
21B
330
218
100
AcDbEntity
  8
0
 62
     0
  0
SOLID
  5
21E
330
200
100
AcDbEntity
  8
0
 62
     0
100
AcDbTrace
 10
-0.25
 20
1.0
 30
0.0
 11
-0.5
 21
1.0
 31
0.0
 12
-0.25
 22
1.0
 32
0.0
 13
-0.25
 23
1.0
 33
0.0
  0
LINE
  5
21F
330
200
100
AcDbEntity
  8
0
 62
     0
100
AcDbLine
 10
-1.0
 20
0.0
 30
0.0
 11
-0.5
 21
0.0
 31
0.0
  0
LINE
  5
220
330
200
100
AcDbEntity
  8
0
 62
     0
100
AcDbLine
 10
-0.5
 20
0.0
 30
0.0
 11
-1.0
 21
0.0
 31
0.0
  0
ENDBLK
  5
202
330
200
100
AcDbEntity
  8
0
100
AcDbBlockEnd
  0
BLOCK
  5
243
330
242
100
AcDbEntity
  8
0
100
AcDbBlockBegin
  2
Borders PCH WEB A4
 70
     0
 10
0.0
 20
0.0
 30
0.0
  3
Borders PCH WEB A4
  1

  0
HATCH
  5
269
330
242
100
AcDbEntity
  8
Hatch
 62
     7
100
AcDbHatch
 10
0.0
 20
0.0
 30
0.0
210
0.0
220
0.0
230
1.0
  2
SOLID
 70
     1
 71
     0
 91
        1
 92
        1
 93
       36
 72
     1
 10
85.12442361902841
 20
29.83952031839042
 11
90.12021436987984
 21
29.83952031839042
 72
     1
 10
90.12021436987984
 20
29.83952031839042
 11
90.12021436987984
 21
30.31758642010827
 72
     1
 10
90.12021436987984
 20
30.31758642010827
 11
89.57055771862744
 21
30.31758642010827
 72
     2
 10
89.57055771862744
 20
31.42300045759145
 40
1.105414037483174
 50
90.0
 51
172.8064007198703
 73
     0
 72
     1
 10
88.47384473046572
 20
31.28457785877812
 11
88.47384473046572
 21
35.72725452681896
 72
     1
 10
88.47384473046572
 20
35.72725452681896
 11
96.16057270764461
 21
35.72725452681896
 72
     1
 10
96.16057270764459
 20
35.72725452681896
 11
96.16057270764459
 21
31.3089677253812
 72
     2
 10
94.99216056273015
 20
31.49643795118536
 40
1.183356254872822
 50
9.115342837332718
 51
84.99970343845211
 73
     0
 72
     1
 10
95.09530295777265
 20
30.31758525797406
 11
93.99162909502386
 21
30.31758525797406
 72
     1
 10
93.99162909502386
 20
30.31758525797407
 11
93.99162909502386
 21
29.83951915625621
 72
     1
 10
93.99162909502386
 20
29.83951915625621
 11
99.53719586151921
 21
29.83951915625621
 72
     1
 10
99.53719586151921
 20
29.83951915625621
 11
99.53719586151919
 21
30.31758525797406
 72
     1
 10
99.53719586151919
 20
30.31758525797407
 11
98.96748550108981
 21
30.31758525797406
 72
     2
 10
98.96748550108981
 20
31.50824222299917
 40
1.190656965025106
 50
90.0
 51
178.5223656823804
 73
     0
 72
     1
 10
97.7772244686659
 20
31.47753907892596
 11
97.77722446866588
 21
40.54104742202702
 72
     2
 10
98.9457575770492
 20
40.54104742202702
 40
1.168533108383336
 50
180.0
 51
273.9107354596889
 73
     0
 72
     1
 10
99.02545413466942
 20
41.70685962135053
 11
99.32922171552743
 21
41.70685962135053
 72
     1
 10
99.32922171552744
 20
41.70685962135053
 11
99.32922171552744
 21
42.14439631375073
 72
     1
 10
99.32922171552744
 20
42.14439631375073
 11
94.18509592283649
 21
42.14439631375073
 72
     1
 10
94.18509592283648
 20
42.14439631375073
 11
94.18509592283648
 21
41.70685962135053
 72
     1
 10
94.18509592283648
 20
41.70685962135053
 11
95.06738178839349
 21
41.70685962135053
 72
     2
 10
95.06646109900245
 20
40.61274840008619
 40
1.094111608642141
 50
270.0482141146825
 51
360.0
 73
     0
 72
     1
 10
96.16057270764457
 20
40.61274840008619
 11
96.16057270764459
 21
36.45263041054171
 72
     1
 10
96.16057270764459
 20
36.45263041054171
 11
88.47384473046572
 21
36.45263041054171
 72
     1
 10
88.47384473046572
 20
36.45263041054171
 11
88.47384473046572
 21
40.668399985546
 72
     2
 10
89.51257510724987
 20
40.668399985546
 40
1.038730376784161
 50
180.0
 51
271.3081954843145
 73
     0
 72
     1
 10
89.53628966942384
 20
41.70685962135043
 11
90.12817817732347
 21
41.70685962135043
 72
     1
 10
90.12817817732347
 20
41.70685962135043
 11
90.12817817732347
 21
42.14439631374834
 72
     1
 10
90.12817817732347
 20
42.14439631374834
 11
85.3245838741066
 21
42.14439631374839
 72
     1
 10
85.3245838741066
 20
42.14439631374839
 11
85.32458387410624
 21
41.70685962135043
 72
     1
 10
85.32458387410626
 20
41.70685962135043
 11
85.89887128525445
 21
41.70685962135037
 72
     2
 10
85.7884589986755
 20
40.77781686597326
 40
0.9355807364125672
 50
276.7775394983808
 51
360.0
 73
     0
 72
     1
 10
86.72403973508808
 20
40.77781686597326
 11
86.72403973508808
 21
31.11571726131325
 72
     2
 10
85.89998462560147
 20
31.14206255560418
 40
0.8244761354959045
 50
1.831139923276387
 51
90.0
 73
     0
 72
     1
 10
85.89998462560147
 20
30.31758642010828
 11
85.12442361902841
 21
30.31758642010828
 72
     1
 10
85.12442361902841
 20
30.31758642010828
 11
85.12442361902841
 21
29.83952031839043
 97
        0
 75
     0
 76
     1
 98
        1
 10
0.0
 20
0.0
  0
HATCH
  5
289
330
242
100
AcDbEntity
  8
Hatch
 62
     7
100
AcDbHatch
 10
0.0
 20
0.0
 30
0.0
210
0.0
220
0.0
230
1.0
  2
SOLID
 70
     1
 71
     0
 91
        1
 92
        1
 93
       31
 72
     1
 10
102.1547912193991
 20
41.97010024424379
 11
102.154791219399
 21
41.62746438732523
 72
     1
 10
102.154791219399
 20
41.62746438732523
 11
103.0602669398915
 21
41.62746438732523
 72
     2
 10
102.8331600320866
 20
40.91583622624237
 40
0.7469887463803611
 50
287.6998094052565
 51
361.934617559854
 73
     0
 72
     1
 10
103.579722995987
 20
40.89061861035192
 11
103.579722995987
 21
34.1669504827082
 72
     2
 10
102.9573085340146
 20
34.12404022227598
 40
0.6238918599586445
 50
356.0561765841167
 51
450.0
 73
     0
 72
     1
 10
102.9573085340146
 20
33.50014836231733
 11
101.8824085117055
 21
33.50014836231733
 72
     1
 10
101.8824085117055
 20
33.50014836231733
 11
101.8824085117055
 21
33.12128352118615
 72
     1
 10
101.8824085117055
 20
33.12128352118615
 11
109.4445507229238
 21
33.12128352118615
 72
     1
 10
109.4445507229238
 20
33.12128352118615
 11
109.6264058462396
 21
35.31869959974696
 72
     1
 10
109.6264058462397
 20
35.31869959974697
 11
109.3081593804369
 21
35.31869959974697
 72
     1
 10
109.3081593804369
 20
35.31869959974697
 11
109.0050675082438
 21
34.31849641916067
 72
     2
 10
107.9829263150102
 20
34.84857097355368
 40
1.151412893848158
 50
27.41090705137652
 51
90.0
 73
     0
 72
     1
 10
107.9829263150102
 20
33.69715807970553
 11
105.3997755668756
 21
33.69715807970555
 72
     2
 10
105.3997755668756
 20
34.27727935010004
 40
0.5801212703944943
 50
90.0
 51
185.5763565279712
 73
     0
 72
     1
 10
104.8223996719787
 20
34.33365101280592
 11
104.8223996719787
 21
37.43188625703534
 72
     1
 10
104.8223996719787
 20
37.43188625703533
 11
107.4789200117702
 21
37.43188625703533
 72
     2
 10
107.4035166768197
 20
36.74829132476935
 40
0.6877410081865026
 50
276.2945141870209
 51
360.0
 73
     0
 72
     1
 10
108.0912576850063
 20
36.74829132476935
 11
108.0912576850063
 21
36.29702916093619
 72
     1
 10
108.0912576850063
 20
36.29702916093619
 11
108.4317148223339
 21
36.29702916093619
 72
     1
 10
108.4317148223339
 20
36.29702916093619
 11
108.4317148223339
 21
39.05473190445711
 72
     1
 10
108.4317148223339
 20
39.05473190445711
 11
108.0912576850063
 21
39.05473190445711
 72
     1
 10
108.0912576850063
 20
39.05473190445711
 11
108.0912576850063
 21
38.70548055206807
 72
     2
 10
107.4142779478781
 20
38.68787207572515
 40
0.6772086996792471
 50
358.5100529642173
 51
450.0
 73
     0
 72
     1
 10
107.4142779478781
 20
38.0106633760459
 11
104.8223996719787
 21
38.01066337604589
 72
     1
 10
104.8223996719787
 20
38.0106633760459
 11
104.8223996719787
 21
41.38053705784578
 72
     1
 10
104.8223996719787
 20
41.38053705784578
 11
107.7927000194713
 21
41.38053705784578
 72
     2
 10
107.8978801512681
 20
40.68365869243439
 40
0.7047711091576076
 50
261.417106453745
 51
352.3295996795476
 73
     0
 72
     1
 10
108.596345170334
 20
40.7777274621958
 11
108.7771229990136
 21
39.89000566875154
 72
     1
 10
108.7771229990136
 20
39.89000566875155
 11
109.1308570939223
 21
39.92799053706638
 72
     1
 10
109.1308570939223
 20
39.92799053706638
 11
108.9115701509101
 21
41.97010024424379
 72
     1
 10
108.9115701509101
 20
41.97010024424379
 11
102.1547912193991
 21
41.97010024424379
 97
        0
 75
     0
 76
     1
 98
        1
 10
0.0
 20
0.0
  0
HATCH
  5
2A3
330
242
100
AcDbEntity
  8
Hatch
 62
     7
100
AcDbHatch
 10
0.0
 20
0.0
 30
0.0
210
0.0
220
0.0
230
1.0
  2
SOLID
 70
     1
 71
     0
 91
        1
 92
        1
 93
       25
 72
     1
 10
119.3021258490195
 20
41.97010024423225
 11
119.3021258490195
 21
41.6040588455903
 72
     1
 10
119.3021258490195
 20
41.6040588455903
 11
120.1993209031724
 21
41.6040588455903
 72
     2
 10
120.0708873828182
 20
40.96732444950536
 40
0.6495582039418895
 50
281.4039208677229
 51
367.8463456294263
 73
     0
 72
     1
 10
120.7143642528213
 20
40.87864875904135
 11
120.7143642528211
 21
35.11936028363493
 72
     1
 10
120.7143642528211
 20
35.11936028363493
 11
114.1508259874092
 21
41.97010024423225
 72
     1
 10
114.1508259874092
 20
41.97010024423225
 11
111.8901167513869
 21
41.97010024423225
 72
     1
 10
111.8901167513869
 20
41.97010024423225
 11
111.8901167513869
 21
41.6040588455903
 72
     1
 10
111.8901167513869
 20
41.6040588455903
 11
112.2991383716152
 21
41.60405884559019
 72
     2
 10
112.1386734304087
 20
40.00605731376576
 40
1.606037948826286
 50
275.7341919061111
 51
304.8422491572884
 73
     0
 72
     1
 10
113.0562332922184
 20
41.32417786707858
 11
113.0562332922185
 21
33.99046377482
 72
     2
 10
112.4939092605523
 20
34.04463735811942
 40
0.5649275119135968
 50
5.502820418839479
 51
90.00000000000182
 73
     0
 72
     1
 10
112.4939092605523
 20
33.47970984620582
 11
111.8798712955539
 21
33.47970984620582
 72
     1
 10
111.8798712955539
 20
33.47970984620582
 11
111.8798712955539
 21
33.12128352118615
 72
     1
 10
111.8798712955539
 20
33.12128352118615
 11
115.2123756143386
 21
33.12128352118615
 72
     1
 10
115.2123756143386
 20
33.12128352118615
 11
115.2123756143386
 21
33.47970984620582
 72
     1
 10
115.2123756143386
 20
33.47970984620582
 11
114.4433938382243
 21
33.47970984620582
 72
     2
 10
114.4433938382243
 20
34.14246580113967
 40
0.6627559549338308
 50
90.0
 51
176.6611019586586
 73
     0
 72
     1
 10
113.7817629072869
 20
34.10386571011405
 11
113.7817629072868
 21
40.59237604156083
 72
     1
 10
113.7817629072868
 20
40.59237604156083
 11
121.0561519425781
 21
32.99968051091815
 72
     1
 10
121.0561519425781
 20
32.99968051091815
 11
121.3807309808982
 21
32.99968051091815
 72
     1
 10
121.3807309808982
 20
32.99968051091815
 11
121.3807309808982
 21
41.01826591397905
 72
     2
 10
121.9666849959759
 20
41.01826591397905
 40
0.5859540150776762
 50
180.0
 51
268.6564887847029
 73
     0
 72
     1
 10
121.9529463985238
 20
41.6040588455903
 11
122.698224284294
 21
41.6040588455903
 72
     1
 10
122.698224284294
 20
41.6040588455903
 11
122.698224284294
 21
41.97010024423225
 72
     1
 10
122.698224284294
 20
41.97010024423225
 11
119.3021258490195
 21
41.97010024423225
 97
        0
 75
     0
 76
     1
 98
        1
 10
0.0
 20
0.0
  0
HATCH
  5
2B3
330
242
100
AcDbEntity
  8
Hatch
 62
     7
100
AcDbHatch
 10
0.0
 20
0.0
 30
0.0
210
0.0
220
0.0
230
1.0
  2
SOLID
 70
     1
 71
     0
 91
        2
 92
        0
 93
        5
 72
     2
 10
127.4121233785852
 20
34.05344370007729
 40
0.5657747847795487
 50
183.5630728646947
 51
270.0
 73
     1
 72
     1
 10
127.4121233785852
 20
33.48766891529775
 11
129.2967718760781
 21
33.48766891529775
 72
     2
 10
128.6383138931824
 20
37.58682170857503
 40
4.151700921052971
 50
279.1256196326258
 51
444.7832579466122
 73
     1
 72
     1
 10
129.0158013944008
 20
41.72132575674042
 11
126.8474422423256
 21
41.72132575674042
 72
     1
 10
126.8474422423256
 20
41.72132575674042
 11
126.8474422423256
 21
34.01828233712216
 97
        0
 92
        1
 93
       10
 72
     1
 10
124.3981126085731
 20
33.13340178117039
 11
124.3981126085731
 21
33.48766891529775
 72
     1
 10
124.3981126085731
 20
33.48766891529775
 11
124.9975881118954
 21
33.48766891529775
 72
     2
 10
124.9975881118954
 20
34.18828623806311
 40
0.7006173227653628
 50
270.0000000000014
 51
353.024809413329
 73
     1
 72
     1
 10
125.6930200458687
 20
34.10320358313766
 11
125.6930200458687
 21
40.8351095659028
 72
     2
 10
124.8019237182614
 20
40.8351095659028
 40
0.8910963276072079
 50
0.0
 51
84.00085025510522
 73
     1
 72
     1
 10
124.8950554967922
 20
41.72132575674042
 11
124.324815961179
 21
41.72132575674042
 72
     1
 10
124.324815961179
 20
41.72132575674042
 11
124.324815961179
 21
41.97786402628091
 72
     1
 10
124.324815961179
 20
41.97786402628091
 11
129.0158013944007
 21
41.97786402628091
 72
     2
 10
129.5605390499924
 20
37.56847517638674
 40
4.442909985920329
 50
262.9573407957678
 51
453.4035435467083
 73
     0
 72
     1
 10
129.2967718760781
 20
33.13340178117039
 11
124.3981126085731
 21
33.13340178117039
 97
        0
 75
     0
 76
     1
 98
        1
 10
0.0
 20
0.0
  0
HATCH
  5
2D3
330
242
100
AcDbEntity
  8
Hatch
 62
     7
100
AcDbHatch
 10
0.0
 20
0.0
 30
0.0
210
0.0
220
0.0
230
1.0
  2
SOLID
 70
     1
 71
     0
 91
        1
 92
        1
 93
       31
 72
     1
 10
142.3185929658183
 20
39.05175935219841
 11
142.3185929658183
 21
38.70250799980937
 72
     2
 10
141.6416132286902
 20
38.68489952346644
 40
0.6772086996792471
 50
358.5100529642173
 51
450.0
 73
     0
 72
     1
 10
141.6416132286902
 20
38.0076908237872
 11
139.0497349527908
 21
38.0076908237872
 72
     1
 10
139.0497349527908
 20
38.0076908237872
 11
139.0497349527908
 21
41.37756450558708
 72
     1
 10
139.0497349527908
 20
41.37756450558708
 11
142.0200353002834
 21
41.37756450558707
 72
     2
 10
142.1252154320802
 20
40.68068614017568
 40
0.7047711091576076
 50
261.417106453745
 51
352.3295996795476
 73
     0
 72
     1
 10
142.8236804511461
 20
40.77475490993709
 11
143.0044582798257
 21
39.88703311649284
 72
     1
 10
143.0044582798257
 20
39.88703311649284
 11
143.3581923747342
 21
39.92501798480765
 72
     1
 10
143.3581923747342
 20
39.92501798480765
 11
143.1389054317222
 21
41.96712769198511
 72
     1
 10
143.1389054317222
 20
41.96712769198511
 11
136.3821265002112
 21
41.96712769198511
 72
     1
 10
136.3821265002112
 20
41.96712769198511
 11
136.3821265002111
 21
41.62449183506653
 72
     1
 10
136.3821265002111
 20
41.62449183506653
 11
137.2876022207036
 21
41.62449183506653
 72
     2
 10
137.0604953128987
 20
40.91286367398367
 40
0.7469887463803611
 50
287.6998094052565
 51
361.934617559854
 73
     0
 72
     1
 10
137.807058276799
 20
40.88764605809322
 11
137.807058276799
 21
34.1639779304495
 72
     2
 10
137.1846438148267
 20
34.12106767001727
 40
0.6238918599586445
 50
356.0561765841167
 51
450.0
 73
     0
 72
     1
 10
137.1846438148267
 20
33.49717581005863
 11
136.1097437925176
 21
33.49717581005862
 72
     1
 10
136.1097437925176
 20
33.49717581005862
 11
136.1097437925176
 21
33.11831096892745
 72
     1
 10
136.1097437925176
 20
33.11831096892745
 11
143.6718860037359
 21
33.11831096892746
 72
     1
 10
143.6718860037359
 20
33.11831096892745
 11
143.8537411270517
 21
35.31572704748831
 72
     1
 10
143.8537411270517
 20
35.31572704748831
 11
143.5354946612489
 21
35.31572704748831
 72
     1
 10
143.5354946612489
 20
35.31572704748831
 11
143.2324027890558
 21
34.31552386690196
 72
     2
 10
142.2102615958223
 20
34.84559842129498
 40
1.151412893848158
 50
27.41090705137652
 51
90.0
 73
     0
 72
     1
 10
142.2102615958223
 20
33.69418552744684
 11
139.6271108476878
 21
33.69418552744682
 72
     2
 10
139.6271108476876
 20
34.27430679784134
 40
0.5801212703944943
 50
89.99999999998072
 51
185.5763565279438
 73
     0
 72
     1
 10
139.049734952791
 20
34.33067846054691
 11
139.0497349527908
 21
37.42891370477663
 72
     1
 10
139.0497349527908
 20
37.42891370477663
 11
141.7062552925825
 21
37.42891370477666
 72
     2
 10
141.6308519576318
 20
36.74531877251065
 40
0.6877410081865026
 50
276.2945141870343
 51
360.0
 73
     0
 72
     1
 10
142.3185929658183
 20
36.74531877251035
 11
142.3185929658183
 21
36.29405660867749
 72
     1
 10
142.3185929658183
 20
36.29405660867749
 11
142.6590501031463
 21
36.2940566086772
 72
     1
 10
142.6590501031463
 20
36.2940566086772
 11
142.6590501031459
 21
39.0517593521984
 72
     1
 10
142.6590501031459
 20
39.05175935219841
 11
142.3185929658183
 21
39.05175935219841
 97
        0
 75
     0
 76
     1
 98
        1
 10
0.0
 20
0.0
  0
HATCH
  5
2F1
330
242
100
AcDbEntity
  8
Hatch
 62
     7
100
AcDbHatch
 10
0.0
 20
0.0
 30
0.0
210
0.0
220
0.0
230
1.0
  2
SOLID
 70
     1
 71
     0
 91
        2
 92
        0
 93
        4
 72
     1
 10
148.540817945555
 20
41.70739500424215
 11
148.540817945555
 21
37.14319332318921
 72
     1
 10
148.540817945555
 20
37.14319332318921
 11
150.1618876282939
 21
37.14319332318921
 72
     2
 10
149.7024653346136
 20
39.41099089891019
 40
2.313865745538523
 50
281.4522871515732
 51
442.9565641102318
 73
     1
 72
     1
 10
149.986195617437
 20
41.70739500424215
 11
148.540817945555
 21
41.70739500424215
 97
        0
 92
        1
 93
       25
 72
     1
 10
155.109905556091
 20
32.99773196157084
 11
156.836788809244
 21
32.99773196157085
 72
     1
 10
156.836788809244
 20
32.99773196157085
 11
156.836788809244
 21
33.26958830489685
 72
     2
 10
156.836788809244
 20
35.97495469715656
 40
2.705366392259709
 50
90.0
 51
121.4748873055302
 73
     0
 72
     2
 10
157.1492256200603
 20
37.11724892920301
 40
3.856864382510258
 50
116.5672687922152
 51
139.2905966922647
 73
     0
 72
     2
 10
144.6020344191325
 20
26.32137869055188
 40
12.69556206325385
 50
40.70940330773501
 51
47.76115907009479
 73
     1
 72
     2
 10
140.9828681073053
 20
24.27141303148241
 40
16.6969331544594
 50
43.29080613025121
 51
51.03987823246249
 73
     1
 72
     2
 10
150.957289585664
 20
39.53199939728282
 40
2.336888734327936
 50
282.9642598519832
 51
382.7019303784485
 73
     1
 72
     2
 10
150.5171197140356
 20
39.12637848801547
 40
2.906690505091034
 50
26.73269879166254
 51
100.5244953658555
 73
     1
 72
     1
 10
149.986195617437
 20
41.98416946988195
 11
145.9268370495981
 21
41.98416946988195
 72
     1
 10
145.9268370495981
 20
41.98416946988195
 11
145.9268370495981
 21
41.70739500424215
 72
     1
 10
145.9268370495981
 20
41.70739500424215
 11
146.4220486991635
 21
41.70739500424215
 72
     2
 10
146.3368756844528
 20
40.7212546308712
 40
0.9898117388812398
 50
274.9363900951959
 51
345.5401304593235
 73
     0
 72
     1
 10
147.2953329304226
 20
40.96841244700324
 11
147.2953329304226
 21
34.19004908333223
 72
     2
 10
146.5376590263892
 20
34.23000561713436
 40
0.7587267422772337
 50
3.018741975093385
 51
76.24202028809174
 73
     0
 72
     1
 10
146.718100308716
 20
33.49304753618342
 11
145.9568677432127
 21
33.49304753618342
 72
     1
 10
145.9568677432127
 20
33.49304753618342
 11
145.9568677432127
 21
33.11621294359638
 72
     1
 10
145.9568677432127
 20
33.11621294359638
 11
149.9136308709488
 21
33.11621294359638
 72
     1
 10
149.9136308709488
 20
33.11621294359638
 11
149.9136308709488
 21
33.49304753618342
 72
     1
 10
149.9136308709488
 20
33.49304753618342
 11
149.0774973948495
 21
33.49304753618343
 72
     2
 10
149.2317352488414
 20
34.23266573894872
 40
0.7555292194652674
 50
101.7794792006094
 51
156.1321644428744
 73
     0
 72
     1
 10
148.540817945555
 20
33.92695724792318
 11
148.540817945555
 21
36.82939443260041
 72
     1
 10
148.540817945555
 20
36.82939443260041
 11
150.1618876282939
 21
36.82939443260041
 72
     2
 10
145.0574978337099
 20
29.20567244294297
 40
9.174744255326107
 50
303.8039063870235
 51
319.8670231832745
 73
     0
 72
     2
 10
158.8762514677249
 20
40.90690879441194
 40
8.932670134752644
 50
220.3838915613148
 51
231.5920830405884
 73
     1
 72
     2
 10
155.772891204607
 20
36.50036177452046
 40
3.564823358415056
 50
226.6714173869075
 51
259.2817293774281
 73
     1
 97
        0
 75
     0
 76
     1
 98
        1
 10
0.0
 20
0.0
  0
HATCH
  5
309
330
242
100
AcDbEntity
  8
Hatch
 62
     7
100
AcDbHatch
 10
0.0
 20
0.0
 30
0.0
210
0.0
220
0.0
230
1.0
  2
SOLID
 70
     1
 71
     0
 91
        1
 92
        1
 93
       23
 72
     1
 10
160.6479774396501
 20
39.26244441350283
 11
160.4444259469803
 21
39.4225163001458
 72
     2
 10
161.2312554746254
 20
40.42306879057798
 40
1.272873124739543
 50
128.1813352870933
 51
251.4218211974398
 73
     0
 72
     2
 10
161.5530162788555
 20
39.46577000957755
 40
2.28279934543278
 50
251.4218211974422
 51
344.7903960667428
 73
     0
 72
     1
 10
163.7558549448598
 20
40.06466454375235
 11
164.10721567289
 21
40.06466454375235
 72
     1
 10
164.10721567289
 20
40.06466454375235
 11
163.7996543556428
 21
41.96446463385914
 72
     1
 10
163.7996543556428
 20
41.96446463385914
 11
163.5697074490312
 21
41.96446463385914
 72
     1
 10
163.5697074490312
 20
41.96446463385914
 11
163.4020199525485
 21
41.8038070543676
 72
     1
 10
163.4020199525485
 20
41.8038070543676
 11
163.142663193898
 21
41.8038070543676
 72
     2
 10
161.4701380824508
 20
38.62456231685784
 40
3.592344269332347
 50
62.25220845887818
 51
110.8096881097972
 73
     1
 72
     2
 10
160.9124442066014
 20
40.09195432508899
 40
2.022547542051841
 50
110.8096881097966
 51
229.7592170607356
 73
     1
 72
     2
 10
167.9276104182948
 20
47.38076045662679
 40
12.13538957445691
 50
226.7060885191224
 51
242.2640809537411
 73
     1
 72
     2
 10
161.3299597988683
 20
34.83320672820006
 40
2.041002712150211
 50
297.7359190462586
 51
370.1574404862627
 73
     0
 72
     2
 10
161.4963816346599
 20
35.3735633764681
 40
2.050774512687569
 50
26.04024600612266
 51
95.31911364912323
 73
     0
 72
     2
 10
161.5364623132012
 20
35.80405851622432
 40
2.48313145567109
 50
95.31911364912337
 51
169.9703510823305
 73
     0
 72
     1
 10
159.091278660378
 20
35.37160189399552
 11
158.7827946941463
 21
35.37160189399552
 72
     1
 10
158.7827946941462
 20
35.37160189399552
 11
159.1500680314156
 21
33.10296185342283
 72
     1
 10
159.1500680314156
 20
33.10296185342283
 11
159.3735558034684
 21
33.10296185342283
 72
     1
 10
159.3735558034684
 20
33.10296185342283
 11
159.4283890898879
 21
33.28391169903226
 72
     2
 10
159.6330425367475
 20
32.86491159904763
 40
0.4663090360465238
 50
243.9675933989487
 51
294.6997988266684
 73
     0
 72
     2
 10
161.8140380420993
 20
39.47165532283664
 40
6.494263125210722
 50
252.1918822162923
 51
273.9856636166399
 73
     1
 72
     2
 10
162.0862808614568
 20
35.37085123246108
 40
2.384492125826143
 50
274.3088400476872
 51
365.8124657133047
 73
     1
 72
     2
 10
162.1212399354459
 20
35.3744099303153
 40
2.349352387856274
 50
5.812465713302303
 51
56.96974444854597
 73
     1
 72
     2
 10
172.755821743604
 20
53.70760387544598
 40
18.84840909917213
 50
119.7538544899346
 51
129.9695328664264
 73
     0
 97
        0
 75
     0
 76
     1
 98
        1
 10
0.0
 20
0.0
  0
HATCH
  5
314
330
242
100
AcDbEntity
  8
Hatch
 62
     7
100
AcDbHatch
 10
0.0
 20
0.0
 30
0.0
210
0.0
220
0.0
230
1.0
  2
SOLID
 70
     1
 71
     0
 91
        2
 92
        0
 93
        6
 72
     2
 10
172.0675676127221
 20
38.34437756967243
 40
3.407244478276231
 50
36.26259189651417
 51
85.28533039672877
 73
     1
 72
     2
 10
172.0529366637332
 20
38.16697410357546
 40
3.585250249113969
 50
85.28533039672847
 51
183.8704455164119
 73
     1
 72
     2
 10
172.6174459292001
 20
37.37486696252652
 40
4.177955851326371
 50
172.4340468239057
 51
259.8572405806371
 73
     1
 72
     2
 10
172.7919859789266
 20
51.72678793767909
 40
18.4870082501753
 50
267.1776652275068
 51
267.8936768180174
 73
     1
 72
     2
 10
172.2421477821939
 20
36.77693828387718
 40
3.527050806590522
 50
267.8936768180172
 51
344.2786924858666
 73
     1
 72
     2
 10
170.5717924706307
 20
37.24712431901378
 40
5.262320749425029
 50
344.2786924858665
 51
396.2625918965145
 73
     1
 97
        0
 92
        1
 93
        4
 72
     2
 10
172.2881453734119
 20
38.38183346095937
 40
5.460249349820256
 50
267.5537157622909
 51
278.6905453670297
 73
     1
 72
     2
 10
172.6210062620611
 20
37.55776597074917
 40
4.599897721625063
 50
276.1421716975607
 51
442.8928695938044
 73
     1
 72
     2
 10
172.7637841895103
 20
-9.954992033700396
 40
52.07905779243873
 50
89.53094387807677
 51
91.6265072912272
 73
     1
 72
     2
 10
171.652425464485
 20
37.51332019972517
 40
4.604400491663247
 50
94.56991720728446
 51
275.0170075405732
 73
     1
 97
        0
 75
     0
 76
     1
 98
        1
 10
0.0
 20
0.0
  0
HATCH
  5
32E
330
242
100
AcDbEntity
  8
Hatch
 62
     7
100
AcDbHatch
 10
0.0
 20
0.0
 30
0.0
210
0.0
220
0.0
230
1.0
  2
SOLID
 70
     1
 71
     0
 91
        1
 92
        1
 93
       25
 72
     1
 10
194.0232474083051
 20
42.12081822737387
 11
189.3749083702509
 21
42.12081822737387
 72
     1
 10
189.3749083702509
 20
42.12081822737387
 11
189.3749083702509
 21
41.73122328531364
 72
     1
 10
189.3749083702509
 20
41.73122328531364
 11
190.0806148606268
 21
41.73122328531364
 72
     2
 10
190.1499363255331
 20
40.58187851296409
 40
1.151433398518552
 50
266.5484493812014
 51
345.7670224464733
 73
     0
 72
     1
 10
191.2660253227426
 20
40.86497606069582
 11
191.266025322743
 21
32.47326338192227
 72
     1
 10
191.266025322743
 20
32.47326338192227
 11
182.0229222769413
 21
42.12081822737388
 72
     1
 10
182.0229222769413
 20
42.12081822737388
 11
178.9709006007321
 21
42.12081822737407
 72
     1
 10
178.9709006007321
 20
42.12081822737407
 11
178.9709006007321
 21
41.69538822606533
 72
     1
 10
178.9709006007321
 20
41.69538822606533
 11
179.4030407309109
 21
41.69538822606534
 72
     2
 10
179.2845704708843
 20
39.36965923476694
 40
2.328744413514125
 50
272.9160680621876
 51
303.393032434177
 73
     0
 72
     1
 10
180.5662629877748
 20
41.3139624095882
 11
180.5662629877748
 21
31.25937940638551
 72
     2
 10
179.4685390873549
 20
31.39820434497361
 40
1.106467408072776
 50
7.207714392328115
 51
90.62366208306563
 73
     0
 72
     1
 10
179.4564954752804
 20
30.2918024846464
 11
178.8830555747337
 21
30.2918024846464
 72
     1
 10
178.8830555747337
 20
30.2918024846464
 11
178.8830555747337
 21
29.83112863370736
 72
     1
 10
178.8830555747337
 20
29.83112863370736
 11
183.5316735189297
 21
29.83112863370736
 72
     1
 10
183.5316735189297
 20
29.83112863370736
 11
183.5316735189297
 21
30.2918024846464
 72
     1
 10
183.5316735189297
 20
30.2918024846464
 11
182.5445732629956
 21
30.2918024846464
 72
     2
 10
182.6757822558207
 20
31.40832659917116
 40
1.12420723094698
 50
96.7024070595489
 51
176.5514028863301
 73
     0
 72
     1
 10
181.5536107771009
 20
31.34070211794372
 11
181.5536107771007
 21
40.34473639418195
 72
     1
 10
181.5536107771007
 20
40.34473639418195
 11
191.7274563618655
 21
29.72571237358943
 72
     1
 10
191.7274563618655
 20
29.72571237358943
 11
192.2505130215133
 21
29.72571237358906
 72
     1
 10
192.2505130215134
 20
29.72571237358906
 11
192.2505130215134
 21
41.05003346921343
 72
     2
 10
193.1925794818321
 20
40.74413677832381
 40
0.9904857400057274
 50
197.9890378732773
 51
265.2518080546132
 73
     0
 72
     1
 10
193.1105902820963
 20
41.73122328531364
 11
194.0232474083051
 21
41.73122328531364
 72
     1
 10
194.0232474083051
 20
41.73122328531364
 11
194.0232474083051
 21
42.12081822737387
 97
        0
 75
     0
 76
     1
 98
        1
 10
0.0
 20
0.0
  0
HATCH
  5
337
330
242
100
AcDbEntity
  8
Hatch
 62
     7
100
AcDbHatch
 10
0.0
 20
0.0
 30
0.0
210
0.0
220
0.0
230
1.0
  2
SOLID
 70
     1
 71
     0
 91
        1
 92
        1
 93
        8
 72
     1
 10
136.7383592365332
 20
28.81328749047306
 11
131.6040728259251
 21
28.81328749047306
 72
     1
 10
131.6040728259251
 20
28.81328749047306
 11
130.6040529664875
 21
29.85706536384081
 72
     1
 10
130.6040529664875
 20
29.85706536384081
 11
146.8056977643305
 21
29.85706536384081
 72
     1
 10
146.8056977643305
 20
29.85706536384081
 11
145.8056779048929
 21
28.81328749047306
 72
     1
 10
145.8056779048929
 20
28.81328749047306
 11
140.6713914942848
 21
28.81328749047306
 72
     1
 10
140.6713914942848
 20
28.81328749047306
 11
141.5059420923931
 21
29.68435564006092
 72
     1
 10
141.5059420923931
 20
29.68435564006092
 11
135.9038086384247
 21
29.68435564006092
 72
     1
 10
135.9038086384247
 20
29.68435564006092
 11
136.7383592365332
 21
28.81328749047306
 97
        0
 75
     0
 76
     1
 98
        1
 10
0.0
 20
0.0
  0
HATCH
  5
33C
330
242
100
AcDbEntity
  8
Hatch
 62
     1
100
AcDbHatch
 10
0.0
 20
0.0
 30
0.0
210
0.0
220
0.0
230
1.0
  2
SOLID
 70
     1
 71
     0
 91
        1
 92
        1
 93
        4
 72
     1
 10
128.7494049999523
 20
30.36864548668035
 11
128.7494049999523
 21
29.8570653638408
 72
     1
 10
128.7494049999523
 20
29.8570653638408
 11
101.780234499479
 21
29.85706536384079
 72
     1
 10
101.780234499479
 20
29.85706536384079
 11
101.780234499479
 21
30.36864548668034
 72
     1
 10
101.780234499479
 20
30.36864548668034
 11
128.7494049999523
 21
30.36864548668034
 97
        0
 75
     0
 76
     1
 98
        1
 10
0.0
 20
0.0
  0
HATCH
  5
345
330
242
100
AcDbEntity
  8
Hatch
 62
     1
100
AcDbHatch
 10
0.0
 20
0.0
 30
0.0
210
0.0
220
0.0
230
1.0
  2
SOLID
 70
     1
 71
     0
 91
        1
 92
        1
 93
        8
 72
     1
 10
146.8056977643303
 20
30.47124551584519
 11
145.8056779048927
 21
31.51502338921307
 72
     1
 10
145.8056779048926
 20
31.51502338921307
 11
140.6713914942846
 21
31.51502338921297
 72
     1
 10
140.6713914942846
 20
31.51502338921297
 11
141.5059420923931
 21
30.64395523962509
 72
     1
 10
141.5059420923931
 20
30.64395523962508
 11
135.9038086384247
 21
30.64395523962508
 72
     1
 10
135.9038086384247
 20
30.64395523962508
 11
136.7383592365332
 21
31.51502338921294
 72
     1
 10
136.7383592365332
 20
31.51502338921294
 11
131.6040728259251
 21
31.51502338921294
 72
     1
 10
131.6040728259251
 20
31.51502338921294
 11
130.6040529664875
 21
30.47124551584519
 72
     1
 10
130.6040529664875
 20
30.47124551584519
 11
146.8056977643303
 21
30.47124551584519
 97
        0
 75
     0
 76
     1
 98
        1
 10
0.0
 20
0.0
  0
HATCH
  5
34A
330
242
100
AcDbEntity
  8
Hatch
 62
     1
100
AcDbHatch
 10
0.0
 20
0.0
 30
0.0
210
0.0
220
0.0
230
1.0
  2
SOLID
 70
     1
 71
     0
 91
        1
 92
        1
 93
        4
 72
     1
 10
175.6295162313388
 20
30.36864548668034
 11
148.6603457308655
 21
30.36864548668034
 72
     1
 10
148.6603457308655
 20
30.36864548668034
 11
148.6603457308655
 21
29.85706536384079
 72
     1
 10
148.6603457308655
 20
29.85706536384079
 11
175.6295162313388
 21
29.85706536384079
 72
     1
 10
175.6295162313388
 20
29.85706536384079
 11
175.6295162313388
 21
30.36864548668034
 97
        0
 75
     0
 76
     1
 98
        1
 10
0.0
 20
0.0
  0
LINE
  5
34B
330
242
100
AcDbEntity
  8
Sketch Geometry(ISO)
  6
CONTINUOUS_ACAD
 62
     7
370
    25
100
AcDbLine
 10
10.0
 20
287.0
 30
0.0
 11
9.999999999999998
 21
10.0
 31
0.0
  0
LINE
  5
34C
330
242
100
AcDbEntity
  8
Sketch Geometry(ISO)
  6
Continuous
 62
     7
370
    25
100
AcDbLine
 10
200.0
 20
287.0
 30
0.0
 11
10.0
 21
287.0
 31
0.0
  0
LINE
  5
34D
330
242
100
AcDbEntity
  8
Sketch Geometry(ISO)
  6
CONTINUOUS_ACAD
 62
     7
370
    18
100
AcDbLine
 10
96.16057270764457
 20
40.61274840008619
 30
0.0
 11
96.16057270764459
 21
36.45263041054171
 31
0.0
  0
ARC
  5
34E
330
242
100
AcDbEntity
  8
Sketch Geometry(ISO)
  6
CONTINUOUS_ACAD
 62
     7
370
    18
100
AcDbCircle
 10
98.9457575770492
 20
40.54104742202702
 30
0.0
 40
1.168533108383336
100
AcDbArc
 50
86.08926454031106
 51
180.0
  0
ARC
  5
34F
330
242
100
AcDbEntity
  8
Sketch Geometry(ISO)
  6
CONTINUOUS_ACAD
 62
     7
370
    18
100
AcDbCircle
 10
95.06646109900245
 20
40.61274840008619
 30
0.0
 40
1.094111608642141
100
AcDbArc
 50
0.0
 51
89.95178588531743
  0
LINE
  5
350
330
242
100
AcDbEntity
  8
Sketch Geometry(ISO)
  6
CONTINUOUS_ACAD
 62
     7
370
    18
100
AcDbLine
 10
94.18509592283648
 20
41.70685962135053
 30
0.0
 11
95.06738178839349
 21
41.70685962135053
 31
0.0
  0
LINE
  5
351
330
242
100
AcDbEntity
  8
Sketch Geometry(ISO)
  6
CONTINUOUS_ACAD
 62
     7
370
    18
100
AcDbLine
 10
88.47384473046572
 20
36.45263041054171
 30
0.0
 11
96.16057270764459
 21
36.45263041054171
 31
0.0
  0
LINE
  5
352
330
242
100
AcDbEntity
  8
Sketch Geometry(ISO)
  6
CONTINUOUS_ACAD
 62
     7
370
    18
100
AcDbLine
 10
96.16057270764459
 20
35.72725452681896
 30
0.0
 11
88.47384473046572
 21
35.72725452681896
 31
0.0
  0
LINE
  5
353
330
242
100
AcDbEntity
  8
Sketch Geometry(ISO)
  6
CONTINUOUS_ACAD
 62
     7
370
    18
100
AcDbLine
 10
97.77722446866588
 20
40.54104742202702
 30
0.0
 11
97.7772244686659
 21
31.47753907892596
 31
0.0
  0
LINE
  5
354
330
242
100
AcDbEntity
  8
Sketch Geometry(ISO)
  6
CONTINUOUS_ACAD
 62
     7
370
    18
100
AcDbLine
 10
94.18509592283648
 20
41.70685962135053
 30
0.0
 11
94.18509592283648
 21
42.14439631375073
 31
0.0
  0
LINE
  5
355
330
242
100
AcDbEntity
  8
Sketch Geometry(ISO)
  6
CONTINUOUS_ACAD
 62
     7
370
    18
100
AcDbLine
 10
99.32922171552744
 20
41.70685962135053
 30
0.0
 11
98.866061019429
 21
41.70685962135053
 31
0.0
  0
LINE
  5
356
330
242
100
AcDbEntity
  8
Sketch Geometry(ISO)
  6
CONTINUOUS_ACAD
 62
     7
370
    18
100
AcDbLine
 10
99.32922171552744
 20
42.14439631375073
 30
0.0
 11
99.32922171552744
 21
41.70685962135053
 31
0.0
  0
LINE
  5
357
330
242
100
AcDbEntity
  8
Sketch Geometry(ISO)
  6
CONTINUOUS_ACAD
 62
     7
370
    18
100
AcDbLine
 10
94.18509592283648
 20
42.14439631375073
 30
0.0
 11
99.32922171552744
 21
42.14439631375073
 31
0.0
  0
LINE
  5
358
330
242
100
AcDbEntity
  8
Sketch Geometry(ISO)
  6
CONTINUOUS_ACAD
 62
     7
370
    18
100
AcDbLine
 10
90.12817817732347
 20
42.14439631374834
 30
0.0
 11
90.12817817732347
 21
41.70685962135043
 31
0.0
  0
LINE
  5
359
330
242
100
AcDbEntity
  8
Sketch Geometry(ISO)
  6
CONTINUOUS_ACAD
 62
     7
370
    18
100
AcDbLine
 10
85.3245838741066
 20
42.14439631374839
 30
0.0
 11
90.12817817732347
 21
42.14439631374834
 31
0.0
  0
LINE
  5
35A
330
242
100
AcDbEntity
  8
Sketch Geometry(ISO)
  6
CONTINUOUS_ACAD
 62
     7
370
    18
100
AcDbLine
 10
85.32458387410626
 20
41.70685962135043
 30
0.0
 11
85.3245838741066
 21
42.14439631374839
 31
0.0
  0
LINE
  5
35B
330
242
100
AcDbEntity
  8
Sketch Geometry(ISO)
  6
CONTINUOUS_ACAD
 62
     7
370
    18
100
AcDbLine
 10
90.12817817732347
 20
41.70685962135043
 30
0.0
 11
89.48886054507591
 21
41.70685962135043
 31
0.0
  0
LINE
  5
35C
330
242
100
AcDbEntity
  8
Sketch Geometry(ISO)
  6
CONTINUOUS_ACAD
 62
     7
370
    18
100
AcDbLine
 10
85.89887128525445
 20
41.70685962135038
 30
0.0
 11
85.32458387410626
 21
41.70685962135043
 31
0.0
  0
ARC
  5
35D
330
242
100
AcDbEntity
  8
Sketch Geometry(ISO)
  6
CONTINUOUS_ACAD
 62
     7
370
    18
100
AcDbCircle
 10
85.7884589986755
 20
40.77781686597326
 30
0.0
 40
0.9355807364125672
100
AcDbArc
 50
0.0
 51
83.2224605016192
  0
ARC
  5
35E
330
242
100
AcDbEntity
  8
Sketch Geometry(ISO)
  6
CONTINUOUS_ACAD
 62
     7
370
    18
100
AcDbCircle
 10
89.51257510724987
 20
40.668399985546
 30
0.0
 40
1.038730376784161
100
AcDbArc
 50
88.69180451568546
 51
180.0
  0
LINE
  5
35F
330
242
100
AcDbEntity
  8
Sketch Geometry(ISO)
  6
CONTINUOUS_ACAD
 62
     7
370
    18
100
AcDbLine
 10
93.99162909502386
 20
29.83951915625621
 30
0.0
 11
93.99162909502386
 21
30.31758525797407
 31
0.0
  0
LINE
  5
360
330
242
100
AcDbEntity
  8
Sketch Geometry(ISO)
  6
CONTINUOUS_ACAD
 62
     7
370
    18
100
AcDbLine
 10
93.99162909502386
 20
30.31758525797407
 30
0.0
 11
95.09530295777265
 21
30.31758525797406
 31
0.0
  0
ARC
  5
361
330
242
100
AcDbEntity
  8
Sketch Geometry(ISO)
  6
CONTINUOUS_ACAD
 62
     7
370
    18
100
AcDbCircle
 10
94.99216056273015
 20
31.49643795118536
 30
0.0
 40
1.183356254872822
100
AcDbArc
 50
275.0002965615479
 51
350.8846571626673
  0
LINE
  5
362
330
242
100
AcDbEntity
  8
Sketch Geometry(ISO)
  6
CONTINUOUS_ACAD
 62
     7
370
    18
100
AcDbLine
 10
99.53719586151921
 20
29.83951915625621
 30
0.0
 11
93.99162909502386
 21
29.83951915625621
 31
0.0
  0
LINE
  5
363
330
242
100
AcDbEntity
  8
Sketch Geometry(ISO)
  6
CONTINUOUS_ACAD
 62
     7
370
    18
100
AcDbLine
 10
99.53719586151919
 20
30.31758525797407
 30
0.0
 11
99.53719586151921
 21
29.83951915625621
 31
0.0
  0
LINE
  5
364
330
242
100
AcDbEntity
  8
Sketch Geometry(ISO)
  6
CONTINUOUS_ACAD
 62
     7
370
    18
100
AcDbLine
 10
98.96748550108981
 20
30.31758525797406
 30
0.0
 11
99.53719586151919
 21
30.31758525797407
 31
0.0
  0
ARC
  5
365
330
242
100
AcDbEntity
  8
Sketch Geometry(ISO)
  6
CONTINUOUS_ACAD
 62
     7
370
    18
100
AcDbCircle
 10
98.96748550108981
 20
31.50824222299917
 30
0.0
 40
1.190656965025106
100
AcDbArc
 50
181.4776343176195
 51
270.0
  0
LINE
  5
366
330
242
100
AcDbEntity
  8
Sketch Geometry(ISO)
  6
CONTINUOUS_ACAD
 62
     7
370
    18
100
AcDbLine
 10
96.16057270764459
 20
35.72725452681896
 30
0.0
 11
96.16057270764459
 21
31.3089677253812
 31
0.0
  0
LINE
  5
367
330
242
100
AcDbEntity
  8
Sketch Geometry(ISO)
  6
CONTINUOUS_ACAD
 62
     1
370
    18
100
AcDbLine
 10
101.780234499479
 20
29.85706536384079
 30
0.0
 11
101.780234499479
 21
30.36864548668034
 31
0.0
  0
ARC
  5
368
330
242
100
AcDbEntity
  8
Sketch Geometry(ISO)
  6
CONTINUOUS_ACAD
 62
     7
370
    18
100
AcDbCircle
 10
102.9573085340146
 20
34.12404022227598
 30
0.0
 40
0.6238918599586445
100
AcDbArc
 50
270.0
 51
3.943823415883249
  0
LINE
  5
369
330
242
100
AcDbEntity
  8
Sketch Geometry(ISO)
  6
CONTINUOUS_ACAD
 62
     7
370
    18
100
AcDbLine
 10
101.8824085117055
 20
33.12128352118615
 30
0.0
 11
101.8824085117055
 21
33.50014836231733
 31
0.0
  0
LINE
  5
36A
330
242
100
AcDbEntity
  8
Sketch Geometry(ISO)
  6
CONTINUOUS_ACAD
 62
     7
370
    18
100
AcDbLine
 10
103.579722995987
 20
40.94105384213363
 30
0.0
 11
103.579722995987
 21
34.1669504827082
 31
0.0
  0
ARC
  5
36B
330
242
100
AcDbEntity
  8
Sketch Geometry(ISO)
  6
CONTINUOUS_ACAD
 62
     7
370
    18
100
AcDbCircle
 10
102.8331600320866
 20
40.91583622624237
 30
0.0
 40
0.7469887463803613
100
AcDbArc
 50
358.065382440146
 51
72.30019059474345
  0
LINE
  5
36C
330
242
100
AcDbEntity
  8
Sketch Geometry(ISO)
  6
CONTINUOUS_ACAD
 62
     7
370
    18
100
AcDbLine
 10
103.0602669398915
 20
41.62746438732523
 30
0.0
 11
102.154791219399
 21
41.62746438732523
 31
0.0
  0
LINE
  5
36D
330
242
100
AcDbEntity
  8
Sketch Geometry(ISO)
  6
CONTINUOUS_ACAD
 62
     7
370
    18
100
AcDbLine
 10
102.154791219399
 20
41.62746438732523
 30
0.0
 11
102.1547912193991
 21
41.97010024424379
 31
0.0
  0
ARC
  5
36E
330
242
100
AcDbEntity
  8
Sketch Geometry(ISO)
  6
CONTINUOUS_ACAD
 62
     7
370
    18
100
AcDbCircle
 10
107.9829263150102
 20
34.84857097355368
 30
0.0
 40
1.151412893848158
100
AcDbArc
 50
270.0
 51
332.5890929486235
  0
ARC
  5
36F
330
242
100
AcDbEntity
  8
Sketch Geometry(ISO)
  6
CONTINUOUS_ACAD
 62
     7
370
    18
100
AcDbCircle
 10
105.3997755668756
 20
34.27727935010004
 30
0.0
 40
0.5801212703944943
100
AcDbArc
 50
174.4236434720287
 51
270.0
  0
LINE
  5
370
330
242
100
AcDbEntity
  8
Sketch Geometry(ISO)
  6
CONTINUOUS_ACAD
 62
     7
370
    18
100
AcDbLine
 10
104.8223996719787
 20
37.43188625703533
 30
0.0
 11
104.8223996719787
 21
34.33365101280592
 31
0.0
  0
LINE
  5
371
330
242
100
AcDbEntity
  8
Sketch Geometry(ISO)
  6
CONTINUOUS_ACAD
 62
     7
370
    18
100
AcDbLine
 10
108.4317148223339
 20
36.29702916093619
 30
0.0
 11
108.0912576850063
 21
36.29702916093619
 31
0.0
  0
LINE
  5
372
330
242
100
AcDbEntity
  8
Sketch Geometry(ISO)
  6
CONTINUOUS_ACAD
 62
     7
370
    18
100
AcDbLine
 10
108.0912576850063
 20
36.29702916093619
 30
0.0
 11
108.0912576850063
 21
36.74829132476935
 31
0.0
  0
ARC
  5
373
330
242
100
AcDbEntity
  8
Sketch Geometry(ISO)
  6
CONTINUOUS_ACAD
 62
     7
370
    18
100
AcDbCircle
 10
107.4035166768197
 20
36.74829132476935
 30
0.0
 40
0.6877410081865026
100
AcDbArc
 50
0.0
 51
83.70548581297908
  0
LINE
  5
374
330
242
100
AcDbEntity
  8
Sketch Geometry(ISO)
  6
CONTINUOUS_ACAD
 62
     7
370
    18
100
AcDbLine
 10
108.4317148223339
 20
39.05473190445711
 30
0.0
 11
108.4317148223339
 21
36.29702916093619
 31
0.0
  0
LINE
  5
375
330
242
100
AcDbEntity
  8
Sketch Geometry(ISO)
  6
CONTINUOUS_ACAD
 62
     7
370
    18
100
AcDbLine
 10
107.4789200117702
 20
37.43188625703533
 30
0.0
 11
104.8223996719787
 21
37.43188625703533
 31
0.0
  0
LINE
  5
376
330
242
100
AcDbEntity
  8
Sketch Geometry(ISO)
  6
CONTINUOUS_ACAD
 62
     7
370
    18
100
AcDbLine
 10
109.3081593804369
 20
35.31869959974697
 30
0.0
 11
109.0050675082438
 21
34.31849641916066
 31
0.0
  0
LINE
  5
377
330
242
100
AcDbEntity
  8
Sketch Geometry(ISO)
  6
CONTINUOUS_ACAD
 62
     7
370
    18
100
AcDbLine
 10
105.3997755668756
 20
33.69715807970555
 30
0.0
 11
107.9829263150102
 21
33.69715807970553
 31
0.0
  0
LINE
  5
378
330
242
100
AcDbEntity
  8
Sketch Geometry(ISO)
  6
CONTINUOUS_ACAD
 62
     7
370
    18
100
AcDbLine
 10
109.6264058462397
 20
35.31869959974697
 30
0.0
 11
109.4445507229238
 21
33.12128352118615
 31
0.0
  0
LINE
  5
379
330
242
100
AcDbEntity
  8
Sketch Geometry(ISO)
  6
CONTINUOUS_ACAD
 62
     7
370
    18
100
AcDbLine
 10
109.3081593804369
 20
35.31869959974697
 30
0.0
 11
109.6264058462397
 21
35.31869959974697
 31
0.0
  0
LINE
  5
37A
330
242
100
AcDbEntity
  8
Sketch Geometry(ISO)
  6
CONTINUOUS_ACAD
 62
     7
370
    18
100
AcDbLine
 10
109.4445507229238
 20
33.12128352118615
 30
0.0
 11
101.8824085117055
 21
33.12128352118615
 31
0.0
  0
LINE
  5
37B
330
242
100
AcDbEntity
  8
Sketch Geometry(ISO)
  6
CONTINUOUS_ACAD
 62
     7
370
    18
100
AcDbLine
 10
101.8824085117055
 20
33.50014836231733
 30
0.0
 11
102.9573085340146
 21
33.50014836231733
 31
0.0
  0
LINE
  5
37C
330
242
100
AcDbEntity
  8
Sketch Geometry(ISO)
  6
CONTINUOUS_ACAD
 62
     7
370
    18
100
AcDbLine
 10
104.8223996719787
 20
41.38053705784578
 30
0.0
 11
104.8223996719787
 21
38.0106633760459
 31
0.0
  0
LINE
  5
37D
330
242
100
AcDbEntity
  8
Sketch Geometry(ISO)
  6
CONTINUOUS_ACAD
 62
     7
370
    18
100
AcDbLine
 10
104.8223996719787
 20
41.38053705784578
 30
0.0
 11
107.7927000194713
 21
41.38053705784578
 31
0.0
  0
ARC
  5
37E
330
242
100
AcDbEntity
  8
Sketch Geometry(ISO)
  6
CONTINUOUS_ACAD
 62
     7
370
    18
100
AcDbCircle
 10
107.8978801512681
 20
40.68365869243439
 30
0.0
 40
0.7047711091576076
100
AcDbArc
 50
7.670400320452447
 51
98.58289354625499
  0
LINE
  5
37F
330
242
100
AcDbEntity
  8
Sketch Geometry(ISO)
  6
CONTINUOUS_ACAD
 62
     7
370
    18
100
AcDbLine
 10
108.0912576850063
 20
39.05473190445711
 30
0.0
 11
108.4317148223339
 21
39.05473190445711
 31
0.0
  0
LINE
  5
380
330
242
100
AcDbEntity
  8
Sketch Geometry(ISO)
  6
CONTINUOUS_ACAD
 62
     7
370
    18
100
AcDbLine
 10
108.0912576850063
 20
38.67026359938223
 30
0.0
 11
108.0912576850063
 21
39.05473190445711
 31
0.0
  0
ARC
  5
381
330
242
100
AcDbEntity
  8
Sketch Geometry(ISO)
  6
CONTINUOUS_ACAD
 62
     7
370
    18
100
AcDbCircle
 10
107.4142779478781
 20
38.68787207572515
 30
0.0
 40
0.6772086996792471
100
AcDbArc
 50
270.0
 51
1.489947035782676
  0
LINE
  5
382
330
242
100
AcDbEntity
  8
Sketch Geometry(ISO)
  6
CONTINUOUS_ACAD
 62
     7
370
    18
100
AcDbLine
 10
104.8223996719787
 20
38.0106633760459
 30
0.0
 11
107.4142779478781
 21
38.0106633760459
 31
0.0
  0
LINE
  5
383
330
242
100
AcDbEntity
  8
Sketch Geometry(ISO)
  6
CONTINUOUS_ACAD
 62
     7
370
    18
100
AcDbLine
 10
108.7771229990136
 20
39.89000566875155
 30
0.0
 11
108.596345170334
 21
40.7777274621958
 31
0.0
  0
LINE
  5
384
330
242
100
AcDbEntity
  8
Sketch Geometry(ISO)
  6
CONTINUOUS_ACAD
 62
     7
370
    18
100
AcDbLine
 10
109.1308570939223
 20
39.92799053706638
 30
0.0
 11
108.7771229990136
 21
39.89000566875155
 31
0.0
  0
LINE
  5
385
330
242
100
AcDbEntity
  8
Sketch Geometry(ISO)
  6
CONTINUOUS_ACAD
 62
     7
370
    18
100
AcDbLine
 10
108.9115701509101
 20
41.97010024424379
 30
0.0
 11
109.1308570939223
 21
39.92799053706638
 31
0.0
  0
LINE
  5
386
330
242
100
AcDbEntity
  8
Sketch Geometry(ISO)
  6
CONTINUOUS_ACAD
 62
     7
370
    18
100
AcDbLine
 10
102.1547912193991
 20
41.97010024424379
 30
0.0
 11
108.9115701509101
 21
41.97010024424379
 31
0.0
  0
LINE
  5
387
330
242
100
AcDbEntity
  8
Sketch Geometry(ISO)
  6
CONTINUOUS_ACAD
 62
     1
370
    18
100
AcDbLine
 10
128.7494049999523
 20
30.36864548668035
 30
0.0
 11
128.7494049999523
 21
29.8570653638408
 31
0.0
  0
LINE
  5
388
330
242
100
AcDbEntity
  8
Sketch Geometry(ISO)
  6
CONTINUOUS_ACAD
 62
     1
370
    18
100
AcDbLine
 10
128.7494049999523
 20
29.8570653638408
 30
0.0
 11
101.780234499479
 21
29.85706536384079
 31
0.0
  0
LINE
  5
389
330
242
100
AcDbEntity
  8
Sketch Geometry(ISO)
  6
CONTINUOUS_ACAD
 62
     1
370
    18
100
AcDbLine
 10
101.780234499479
 20
30.36864548668034
 30
0.0
 11
128.7494049999523
 21
30.36864548668035
 31
0.0
  0
LINE
  5
38A
330
242
100
AcDbEntity
  8
Sketch Geometry(ISO)
  6
CONTINUOUS_ACAD
 62
     7
370
    18
100
AcDbLine
 10
111.8798712955539
 20
33.12128352118615
 30
0.0
 11
115.2123756143386
 21
33.12128352118615
 31
0.0
  0
LINE
  5
38B
330
242
100
AcDbEntity
  8
Sketch Geometry(ISO)
  6
CONTINUOUS_ACAD
 62
     7
370
    18
100
AcDbLine
 10
115.2123756143386
 20
33.12128352118615
 30
0.0
 11
115.2123756143386
 21
33.47970984620582
 31
0.0
  0
LINE
  5
38C
330
242
100
AcDbEntity
  8
Sketch Geometry(ISO)
  6
CONTINUOUS_ACAD
 62
     7
370
    18
100
AcDbLine
 10
115.2123756143386
 20
33.47970984620582
 30
0.0
 11
114.4433938382243
 21
33.47970984620582
 31
0.0
  0
ARC
  5
38D
330
242
100
AcDbEntity
  8
Sketch Geometry(ISO)
  6
CONTINUOUS_ACAD
 62
     7
370
    18
100
AcDbCircle
 10
114.4433938382243
 20
34.14246580113967
 30
0.0
 40
0.6627559549338308
100
AcDbArc
 50
183.3388980413414
 51
270.0
  0
LINE
  5
38E
330
242
100
AcDbEntity
  8
Sketch Geometry(ISO)
  6
CONTINUOUS_ACAD
 62
     7
370
    18
100
AcDbLine
 10
121.0561519425781
 20
32.99968051091815
 30
0.0
 11
113.7817629072868
 21
40.59237604156083
 31
0.0
  0
LINE
  5
38F
330
242
100
AcDbEntity
  8
Sketch Geometry(ISO)
  6
CONTINUOUS_ACAD
 62
     7
370
    18
100
AcDbLine
 10
120.7143642528213
 20
41.05600013996931
 30
0.0
 11
120.7143642528211
 21
35.11936028363493
 31
0.0
  0
LINE
  5
390
330
242
100
AcDbEntity
  8
Sketch Geometry(ISO)
  6
CONTINUOUS_ACAD
 62
     7
370
    18
100
AcDbLine
 10
120.7143642528211
 20
35.11936028363493
 30
0.0
 11
114.1508259874092
 21
41.97010024423225
 31
0.0
  0
ARC
  5
391
330
242
100
AcDbEntity
  8
Sketch Geometry(ISO)
  6
CONTINUOUS_ACAD
 62
     7
370
    18
100
AcDbCircle
 10
120.0708873828182
 20
40.96732444950536
 30
0.0
 40
0.6495582039418895
100
AcDbArc
 50
352.1536543705736
 51
78.59607913227709
  0
LINE
  5
392
330
242
100
AcDbEntity
  8
Sketch Geometry(ISO)
  6
CONTINUOUS_ACAD
 62
     7
370
    18
100
AcDbLine
 10
120.1993209031724
 20
41.6040588455903
 30
0.0
 11
119.3021258490195
 21
41.6040588455903
 31
0.0
  0
LINE
  5
393
330
242
100
AcDbEntity
  8
Sketch Geometry(ISO)
  6
CONTINUOUS_ACAD
 62
     7
370
    18
100
AcDbLine
 10
113.7817629072868
 20
40.59237604156083
 30
0.0
 11
113.7817629072869
 21
34.10386571011405
 31
0.0
  0
LINE
  5
394
330
242
100
AcDbEntity
  8
Sketch Geometry(ISO)
  6
CONTINUOUS_ACAD
 62
     7
370
    18
100
AcDbLine
 10
119.3021258490195
 20
41.6040588455903
 30
0.0
 11
119.3021258490195
 21
41.97010024423225
 31
0.0
  0
LINE
  5
395
330
242
100
AcDbEntity
  8
Sketch Geometry(ISO)
  6
CONTINUOUS_ACAD
 62
     7
370
    18
100
AcDbLine
 10
112.4939092605523
 20
33.47970984620582
 30
0.0
 11
111.8798712955539
 21
33.47970984620582
 31
0.0
  0
ARC
  5
396
330
242
100
AcDbEntity
  8
Sketch Geometry(ISO)
  6
CONTINUOUS_ACAD
 62
     7
370
    18
100
AcDbCircle
 10
112.4939092605523
 20
34.04463735811942
 30
0.0
 40
0.5649275119135968
100
AcDbArc
 50
269.9999999999982
 51
354.4971795811605
  0
LINE
  5
397
330
242
100
AcDbEntity
  8
Sketch Geometry(ISO)
  6
CONTINUOUS_ACAD
 62
     7
370
    18
100
AcDbLine
 10
111.8798712955539
 20
33.47970984620582
 30
0.0
 11
111.8798712955539
 21
33.12128352118615
 31
0.0
  0
LINE
  5
398
330
242
100
AcDbEntity
  8
Sketch Geometry(ISO)
  6
CONTINUOUS_ACAD
 62
     7
370
    18
100
AcDbLine
 10
113.0562332922185
 20
33.99046377482
 30
0.0
 11
113.0562332922184
 21
41.32417786707858
 31
0.0
  0
ARC
  5
399
330
242
100
AcDbEntity
  8
Sketch Geometry(ISO)
  6
CONTINUOUS_ACAD
 62
     7
370
    18
100
AcDbCircle
 10
112.1386734304087
 20
40.00605731376576
 30
0.0
 40
1.606037948826286
100
AcDbArc
 50
55.15775084271091
 51
84.26580809388882
  0
LINE
  5
39A
330
242
100
AcDbEntity
  8
Sketch Geometry(ISO)
  6
CONTINUOUS_ACAD
 62
     7
370
    18
100
AcDbLine
 10
111.8901167513869
 20
41.97010024423225
 30
0.0
 11
114.1508259874092
 21
41.97010024423225
 31
0.0
  0
LINE
  5
39B
330
242
100
AcDbEntity
  8
Sketch Geometry(ISO)
  6
CONTINUOUS_ACAD
 62
     7
370
    18
100
AcDbLine
 10
112.2991383716152
 20
41.60405884559019
 30
0.0
 11
111.8901167513869
 21
41.6040588455903
 31
0.0
  0
LINE
  5
39C
330
242
100
AcDbEntity
  8
Sketch Geometry(ISO)
  6
CONTINUOUS_ACAD
 62
     7
370
    18
100
AcDbLine
 10
111.8901167513869
 20
41.6040588455903
 30
0.0
 11
111.8901167513869
 21
41.97010024423225
 31
0.0
  0
LINE
  5
39D
330
242
100
AcDbEntity
  8
Sketch Geometry(ISO)
  6
CONTINUOUS_ACAD
 62
     7
370
    18
100
AcDbLine
 10
126.8474422423256
 20
41.72132575674042
 30
0.0
 11
126.8474422423256
 21
34.01828233712216
 31
0.0
  0
LINE
  5
39E
330
242
100
AcDbEntity
  8
Sketch Geometry(ISO)
  6
CONTINUOUS_ACAD
 62
     7
370
    18
100
AcDbLine
 10
125.6930200458687
 20
34.10320358313766
 30
0.0
 11
125.6930200458687
 21
40.8351095659028
 31
0.0
  0
ARC
  5
39F
330
242
100
AcDbEntity
  8
Sketch Geometry(ISO)
  6
CONTINUOUS_ACAD
 62
     7
370
    18
100
AcDbCircle
 10
124.9975881118954
 20
34.18828623806311
 30
0.0
 40
0.7006173227653628
100
AcDbArc
 50
270.0000000000014
 51
353.024809413329
  0
LINE
  5
3A0
330
242
100
AcDbEntity
  8
Sketch Geometry(ISO)
  6
CONTINUOUS_ACAD
 62
     7
370
    18
100
AcDbLine
 10
124.3981126085731
 20
33.48766891529775
 30
0.0
 11
124.9975881118954
 21
33.48766891529775
 31
0.0
  0
ARC
  5
3A1
330
242
100
AcDbEntity
  8
Sketch Geometry(ISO)
  6
CONTINUOUS_ACAD
 62
     7
370
    18
100
AcDbCircle
 10
124.8019237182614
 20
40.8351095659028
 30
0.0
 40
0.8910963276072079
100
AcDbArc
 50
0.0
 51
84.00085025510522
  0
LINE
  5
3A2
330
242
100
AcDbEntity
  8
Sketch Geometry(ISO)
  6
CONTINUOUS_ACAD
 62
     7
370
    18
100
AcDbLine
 10
124.3981126085731
 20
33.13340178117039
 30
0.0
 11
124.3981126085731
 21
33.48766891529775
 31
0.0
  0
LINE
  5
3A3
330
242
100
AcDbEntity
  8
Sketch Geometry(ISO)
  6
CONTINUOUS_ACAD
 62
     7
370
    18
100
AcDbLine
 10
124.8950554967922
 20
41.72132575674042
 30
0.0
 11
124.324815961179
 21
41.72132575674042
 31
0.0
  0
LINE
  5
3A4
330
242
100
AcDbEntity
  8
Sketch Geometry(ISO)
  6
CONTINUOUS_ACAD
 62
     7
370
    18
100
AcDbLine
 10
122.698224284294
 20
41.6040588455903
 30
0.0
 11
121.9529463985238
 21
41.6040588455903
 31
0.0
  0
ARC
  5
3A5
330
242
100
AcDbEntity
  8
Sketch Geometry(ISO)
  6
CONTINUOUS_ACAD
 62
     7
370
    18
100
AcDbCircle
 10
121.9666849959759
 20
41.01826591397905
 30
0.0
 40
0.5859540150776763
100
AcDbArc
 50
91.34351121529713
 51
180.0
  0
LINE
  5
3A6
330
242
100
AcDbEntity
  8
Sketch Geometry(ISO)
  6
CONTINUOUS_ACAD
 62
     7
370
    18
100
AcDbLine
 10
121.3807309808982
 20
32.99968051091815
 30
0.0
 11
121.3807309808982
 21
41.01826591397905
 31
0.0
  0
LINE
  5
3A7
330
242
100
AcDbEntity
  8
Sketch Geometry(ISO)
  6
CONTINUOUS_ACAD
 62
     7
370
    18
100
AcDbLine
 10
121.0561519425781
 20
32.99968051091815
 30
0.0
 11
121.3807309808982
 21
32.99968051091815
 31
0.0
  0
LINE
  5
3A8
330
242
100
AcDbEntity
  8
Sketch Geometry(ISO)
  6
CONTINUOUS_ACAD
 62
     7
370
    18
100
AcDbLine
 10
122.698224284294
 20
41.97010024423225
 30
0.0
 11
122.698224284294
 21
41.6040588455903
 31
0.0
  0
LINE
  5
3A9
330
242
100
AcDbEntity
  8
Sketch Geometry(ISO)
  6
CONTINUOUS_ACAD
 62
     7
370
    18
100
AcDbLine
 10
119.3021258490195
 20
41.97010024423225
 30
0.0
 11
122.698224284294
 21
41.97010024423225
 31
0.0
  0
LINE
  5
3AA
330
242
100
AcDbEntity
  8
Sketch Geometry(ISO)
  6
CONTINUOUS_ACAD
 62
     7
370
    18
100
AcDbLine
 10
129.2967718760781
 20
33.13340178117039
 30
0.0
 11
124.3981126085731
 21
33.13340178117039
 31
0.0
  0
ARC
  5
3AB
330
242
100
AcDbEntity
  8
Sketch Geometry(ISO)
  6
CONTINUOUS_ACAD
 62
     7
370
    18
100
AcDbCircle
 10
127.4121233785852
 20
34.05344370007729
 30
0.0
 40
0.565774784779549
100
AcDbArc
 50
183.5630728646947
 51
270.0
  0
LINE
  5
3AC
330
242
100
AcDbEntity
  8
Sketch Geometry(ISO)
  6
CONTINUOUS_ACAD
 62
     7
370
    18
100
AcDbLine
 10
127.4121233785852
 20
33.48766891529775
 30
0.0
 11
129.2967718760781
 21
33.48766891529775
 31
0.0
  0
LINE
  5
3AD
330
242
100
AcDbEntity
  8
Sketch Geometry(ISO)
  6
CONTINUOUS_ACAD
 62
     7
370
    18
100
AcDbLine
 10
124.324815961179
 20
41.72132575674042
 30
0.0
 11
124.324815961179
 21
41.97786402628091
 31
0.0
  0
LINE
  5
3AE
330
242
100
AcDbEntity
  8
Sketch Geometry(ISO)
  6
CONTINUOUS_ACAD
 62
     7
370
    18
100
AcDbLine
 10
124.324815961179
 20
41.97786402628091
 30
0.0
 11
129.0158013944008
 21
41.97786402628091
 31
0.0
  0
LINE
  5
3AF
330
242
100
AcDbEntity
  8
Sketch Geometry(ISO)
  6
CONTINUOUS_ACAD
 62
     7
370
    18
100
AcDbLine
 10
129.0158013944008
 20
41.72132575674042
 30
0.0
 11
126.8474422423256
 21
41.72132575674042
 31
0.0
  0
ARC
  5
3B0
330
242
100
AcDbEntity
  8
Sketch Geometry(ISO)
  6
CONTINUOUS_ACAD
 62
     7
370
    18
100
AcDbCircle
 10
128.6383138931824
 20
37.58682170857503
 30
0.0
 40
4.151700921052971
100
AcDbArc
 50
279.1256196326258
 51
84.78325794661227
  0
ARC
  5
3B1
330
242
100
AcDbEntity
  8
Sketch Geometry(ISO)
  6
CONTINUOUS_ACAD
 62
     7
370
    18
100
AcDbCircle
 10
129.5605390499924
 20
37.56847517638674
 30
0.0
 40
4.442909985920329
100
AcDbArc
 50
266.5964564532917
 51
97.04265920423202
  0
LINE
  5
3B2
330
242
100
AcDbEntity
  8
Sketch Geometry(ISO)
  6
CONTINUOUS_ACAD
 62
     7
370
    18
100
AcDbLine
 10
131.6040728259251
 20
28.81328749047306
 30
0.0
 11
136.7383592365332
 21
28.81328749047306
 31
0.0
  0
LINE
  5
3B3
330
242
100
AcDbEntity
  8
Sketch Geometry(ISO)
  6
CONTINUOUS_ACAD
 62
     7
370
    18
100
AcDbLine
 10
130.6040529664875
 20
29.85706536384081
 30
0.0
 11
131.6040728259251
 21
28.81328749047306
 31
0.0
  0
LINE
  5
3B4
330
242
100
AcDbEntity
  8
Sketch Geometry(ISO)
  6
CONTINUOUS_ACAD
 62
     7
370
    18
100
AcDbLine
 10
136.7383592365332
 20
28.81328749047306
 30
0.0
 11
135.9038086384247
 21
29.68435564006092
 31
0.0
  0
LINE
  5
3B5
330
242
100
AcDbEntity
  8
Sketch Geometry(ISO)
  6
CONTINUOUS_ACAD
 62
     7
370
    18
100
AcDbLine
 10
90.12021436987984
 20
29.83952031839042
 30
0.0
 11
85.12442361902841
 21
29.83952031839042
 31
0.0
  0
LINE
  5
3B6
330
242
100
AcDbEntity
  8
Sketch Geometry(ISO)
  6
CONTINUOUS_ACAD
 62
     7
370
    18
100
AcDbLine
 10
88.47384473046572
 20
36.45263041054171
 30
0.0
 11
88.47384473046572
 21
40.668399985546
 31
0.0
  0
LINE
  5
3B7
330
242
100
AcDbEntity
  8
Sketch Geometry(ISO)
  6
CONTINUOUS_ACAD
 62
     7
370
    18
100
AcDbLine
 10
90.12021436987984
 20
30.31758642010827
 30
0.0
 11
90.12021436987984
 21
29.83952031839042
 31
0.0
  0
LINE
  5
3B8
330
242
100
AcDbEntity
  8
Sketch Geometry(ISO)
  6
CONTINUOUS_ACAD
 62
     7
370
    18
100
AcDbLine
 10
89.57055771862743
 20
30.31758642010827
 30
0.0
 11
90.12021436987984
 21
30.31758642010827
 31
0.0
  0
LINE
  5
3B9
330
242
100
AcDbEntity
  8
Sketch Geometry(ISO)
  6
CONTINUOUS_ACAD
 62
     7
370
    18
100
AcDbLine
 10
88.47384473046572
 20
31.28457785877812
 30
0.0
 11
88.47384473046572
 21
35.72725452681896
 31
0.0
  0
ARC
  5
3BA
330
242
100
AcDbEntity
  8
Sketch Geometry(ISO)
  6
CONTINUOUS_ACAD
 62
     7
370
    18
100
AcDbCircle
 10
89.57055771862744
 20
31.42300045759145
 30
0.0
 40
1.105414037483174
100
AcDbArc
 50
187.1935992801294
 51
270.0
  0
LINE
  5
3BB
330
242
100
AcDbEntity
  8
Sketch Geometry(ISO)
  6
CONTINUOUS_ACAD
 62
     7
370
    18
100
AcDbLine
 10
86.72403973508808
 20
40.77781686597326
 30
0.0
 11
86.72403973508808
 21
31.11571726131325
 31
0.0
  0
ARC
  5
3BC
330
242
100
AcDbEntity
  8
Sketch Geometry(ISO)
  6
CONTINUOUS_ACAD
 62
     7
370
    18
100
AcDbCircle
 10
85.89998462560147
 20
31.14206255560418
 30
0.0
 40
0.8244761354959045
100
AcDbArc
 50
270.0
 51
358.1688600767236
  0
LINE
  5
3BD
330
242
100
AcDbEntity
  8
Sketch Geometry(ISO)
  6
CONTINUOUS_ACAD
 62
     7
370
    18
100
AcDbLine
 10
85.12442361902841
 20
30.31758642010828
 30
0.0
 11
85.89998462560147
 21
30.31758642010828
 31
0.0
  0
LINE
  5
3BE
330
242
100
AcDbEntity
  8
Sketch Geometry(ISO)
  6
CONTINUOUS_ACAD
 62
     7
370
    18
100
AcDbLine
 10
85.12442361902841
 20
29.83952031839042
 30
0.0
 11
85.12442361902841
 21
30.31758642010828
 31
0.0
  0
LINE
  5
3BF
330
242
100
AcDbEntity
  8
Sketch Geometry(ISO)
  6
CONTINUOUS_ACAD
 62
     7
370
    18
100
AcDbLine
 10
37.99999999999946
 20
9.999999999999875
 30
0.0
 11
37.99999999999943
 21
32.00000000000005
 31
0.0
  0
LINE
  5
3C0
330
242
100
AcDbEntity
  8
Sketch Geometry(ISO)
  6
Continuous
 62
     7
370
    25
100
AcDbLine
 10
9.999999999999998
 20
10.0
 30
0.0
 11
200.0
 21
10.00000000000023
 31
0.0
  0
LINE
  5
3C1
330
242
100
AcDbEntity
  8
Sketch Geometry(ISO)
  6
CONTINUOUS_ACAD
 62
     7
370
    25
100
AcDbLine
 10
9.999999999999415
 20
45.00000000000001
 30
0.0
 11
199.9999999999994
 21
45.00000000000023
 31
0.0
  0
LINE
  5
3C2
330
242
100
AcDbEntity
  8
Sketch Geometry(ISO)
  6
CONTINUOUS_ACAD
 62
     7
370
    25
100
AcDbLine
 10
80.0
 20
10.00000000000009
 30
0.0
 11
80.0
 21
45.0
 31
0.0
  0
LINE
  5
3C3
330
242
100
AcDbEntity
  8
Sketch Geometry(ISO)
  6
CONTINUOUS_ACAD
 62
     7
370
    25
100
AcDbLine
 10
9.999999999999458
 20
10.0
 30
0.0
 11
9.999999999999415
 21
45.00000000000001
 31
0.0
  0
LINE
  5
3C4
330
242
100
AcDbEntity
  8
Sketch Geometry(ISO)
  6
CONTINUOUS_ACAD
370
    18
100
AcDbLine
 10
9.999999999999763
 20
15.5
 30
0.0
 11
80.0
 21
15.50000000000009
 31
0.0
  0
LINE
  5
3C5
330
242
100
AcDbEntity
  8
Sketch Geometry(ISO)
  6
CONTINUOUS_ACAD
370
    18
100
AcDbLine
 10
9.999999999999536
 20
21.00000000000001
 30
0.0
 11
79.99999999999954
 21
21.00000000000009
 31
0.0
  0
LINE
  5
3C6
330
242
100
AcDbEntity
  8
Sketch Geometry(ISO)
  6
CONTINUOUS_ACAD
370
    18
100
AcDbLine
 10
9.99999999999931
 20
26.50000000000001
 30
0.0
 11
79.9999999999994
 21
26.50000000000009
 31
0.0
  0
LINE
  5
3C7
330
242
100
AcDbEntity
  8
Sketch Geometry(ISO)
  6
CONTINUOUS_ACAD
370
    18
100
AcDbLine
 10
9.999999999999083
 20
32.00000000000001
 30
0.0
 11
79.99999999999909
 21
32.00000000000009
 31
0.0
  0
ARC
  5
3C8
330
242
100
AcDbEntity
  8
Sketch Geometry(ISO)
  6
CONTINUOUS_ACAD
 62
     7
370
    18
100
AcDbCircle
 10
162.0862808614568
 20
35.37085123246108
 30
0.0
 40
2.384492125826143
100
AcDbArc
 50
274.3088400476872
 51
5.812465713304586
  0
ARC
  5
3C9
330
242
100
AcDbEntity
  8
Sketch Geometry(ISO)
  6
CONTINUOUS_ACAD
 62
     7
370
    18
100
AcDbCircle
 10
161.4963816346599
 20
35.3735633764681
 30
0.0
 40
2.050774512687569
100
AcDbArc
 50
264.6808863508768
 51
333.9597539938773
  0
ARC
  5
3CA
330
242
100
AcDbEntity
  8
Sketch Geometry(ISO)
  6
CONTINUOUS_ACAD
 62
     7
370
    18
100
AcDbCircle
 10
161.3299597988683
 20
34.83320672820006
 30
0.0
 40
2.04100271215021
100
AcDbArc
 50
349.8425595137373
 51
62.26408095374138
  0
ARC
  5
3CB
330
242
100
AcDbEntity
  8
Sketch Geometry(ISO)
  6
CONTINUOUS_ACAD
 62
     7
370
    18
100
AcDbCircle
 10
161.8140380420993
 20
39.47165532283664
 30
0.0
 40
6.494263125210721
100
AcDbArc
 50
252.1918822162923
 51
273.9856636166399
  0
ARC
  5
3CC
330
242
100
AcDbEntity
  8
Sketch Geometry(ISO)
  6
CONTINUOUS_ACAD
 62
     7
370
    18
100
AcDbCircle
 10
161.5364623132012
 20
35.80405851622432
 30
0.0
 40
2.483131455671091
100
AcDbArc
 50
190.0296489176694
 51
264.6808863508766
  0
ARC
  5
3CD
330
242
100
AcDbEntity
  8
Sketch Geometry(ISO)
  6
CONTINUOUS_ACAD
 62
     7
370
    18
100
AcDbCircle
 10
159.6330425367475
 20
32.86491159904763
 30
0.0
 40
0.4663090360465238
100
AcDbArc
 50
65.30020117333158
 51
116.0324066010488
  0
LINE
  5
3CE
330
242
100
AcDbEntity
  8
Sketch Geometry(ISO)
  6
CONTINUOUS_ACAD
 62
     7
370
    18
100
AcDbLine
 10
159.1500680314156
 20
33.10296185342283
 30
0.0
 11
159.3735558034684
 21
33.10296185342283
 31
0.0
  0
LINE
  5
3CF
330
242
100
AcDbEntity
  8
Sketch Geometry(ISO)
  6
CONTINUOUS_ACAD
 62
     7
370
    18
100
AcDbLine
 10
146.8056977643305
 20
29.85706536384081
 30
0.0
 11
145.8056779048929
 21
28.81328749047306
 31
0.0
  0
LINE
  5
3D0
330
242
100
AcDbEntity
  8
Sketch Geometry(ISO)
  6
CONTINUOUS_ACAD
 62
     7
370
    18
100
AcDbLine
 10
145.8056779048929
 20
28.81328749047306
 30
0.0
 11
140.6713914942848
 21
28.81328749047306
 31
0.0
  0
LINE
  5
3D1
330
242
100
AcDbEntity
  8
Sketch Geometry(ISO)
  6
CONTINUOUS_ACAD
 62
     1
370
    18
100
AcDbLine
 10
145.8056779048926
 20
31.51502338921307
 30
0.0
 11
140.6713914942846
 21
31.51502338921297
 31
0.0
  0
ARC
  5
3D2
330
242
100
AcDbEntity
  8
Sketch Geometry(ISO)
  6
CONTINUOUS_ACAD
 62
     7
370
    18
100
AcDbCircle
 10
142.2102615958223
 20
34.84559842129498
 30
0.0
 40
1.151412893848158
100
AcDbArc
 50
270.0
 51
332.5890929486235
  0
LINE
  5
3D3
330
242
100
AcDbEntity
  8
Sketch Geometry(ISO)
  6
CONTINUOUS_ACAD
 62
     7
370
    18
100
AcDbLine
 10
140.6713914942848
 20
28.81328749047306
 30
0.0
 11
141.5059420923931
 21
29.68435564006092
 31
0.0
  0
LINE
  5
3D4
330
242
100
AcDbEntity
  8
Sketch Geometry(ISO)
  6
CONTINUOUS_ACAD
 62
     7
370
    18
100
AcDbLine
 10
139.6271108476878
 20
33.69418552744682
 30
0.0
 11
142.2102615958223
 21
33.69418552744684
 31
0.0
  0
LINE
  5
3D5
330
242
100
AcDbEntity
  8
Sketch Geometry(ISO)
  6
CONTINUOUS_ACAD
 62
     1
370
    18
100
AcDbLine
 10
140.6713914942846
 20
31.51502338921297
 30
0.0
 11
141.5059420923931
 21
30.64395523962508
 31
0.0
  0
LINE
  5
3D6
330
242
100
AcDbEntity
  8
Sketch Geometry(ISO)
  6
CONTINUOUS_ACAD
 62
     7
370
    18
100
AcDbLine
 10
143.6718860037359
 20
33.11831096892745
 30
0.0
 11
136.1097437925176
 21
33.11831096892745
 31
0.0
  0
LINE
  5
3D7
330
242
100
AcDbEntity
  8
Sketch Geometry(ISO)
  6
CONTINUOUS_ACAD
 62
     7
370
    18
100
AcDbLine
 10
130.6040529664875
 20
29.85706536384081
 30
0.0
 11
146.8056977643305
 21
29.85706536384081
 31
0.0
  0
LINE
  5
3D8
330
242
100
AcDbEntity
  8
Sketch Geometry(ISO)
  6
DOUBLE_DASH_TRIPLE_DOT
 62
     1
370
    18
100
AcDbLine
 10
130.6040529664875
 20
30.47124551584519
 30
0.0
 11
146.8056977643303
 21
30.47124551584519
 31
0.0
  0
LINE
  5
3D9
330
242
100
AcDbEntity
  8
Sketch Geometry(ISO)
  6
CONTINUOUS_ACAD
 62
     7
370
    18
100
AcDbLine
 10
135.9038086384247
 20
29.68435564006092
 30
0.0
 11
141.5059420923931
 21
29.68435564006092
 31
0.0
  0
LINE
  5
3DA
330
242
100
AcDbEntity
  8
Sketch Geometry(ISO)
  6
DOUBLE_DASH_TRIPLE_DOT
 62
     1
370
    18
100
AcDbLine
 10
135.9038086384247
 20
30.64395523962508
 30
0.0
 11
141.5059420923931
 21
30.64395523962508
 31
0.0
  0
ARC
  5
3DB
330
242
100
AcDbEntity
  8
Sketch Geometry(ISO)
  6
CONTINUOUS_ACAD
 62
     7
370
    18
100
AcDbCircle
 10
139.6271108476876
 20
34.27430679784134
 30
0.0
 40
0.5801212703944943
100
AcDbArc
 50
174.4236434720566
 51
270.0000000000193
  0
ARC
  5
3DC
330
242
100
AcDbEntity
  8
Sketch Geometry(ISO)
  6
CONTINUOUS_ACAD
 62
     7
370
    18
100
AcDbCircle
 10
137.1846438148267
 20
34.12106767001727
 30
0.0
 40
0.6238918599586445
100
AcDbArc
 50
270.0
 51
3.943823415883249
  0
LINE
  5
3DD
330
242
100
AcDbEntity
  8
Sketch Geometry(ISO)
  6
CONTINUOUS_ACAD
 62
     1
370
    18
100
AcDbLine
 10
130.6040529664875
 20
30.47124551584519
 30
0.0
 11
131.6040728259251
 21
31.51502338921294
 31
0.0
  0
LINE
  5
3DE
330
242
100
AcDbEntity
  8
Sketch Geometry(ISO)
  6
CONTINUOUS_ACAD
 62
     1
370
    18
100
AcDbLine
 10
131.6040728259251
 20
31.51502338921294
 30
0.0
 11
136.7383592365332
 21
31.51502338921294
 31
0.0
  0
LINE
  5
3DF
330
242
100
AcDbEntity
  8
Sketch Geometry(ISO)
  6
CONTINUOUS_ACAD
 62
     1
370
    18
100
AcDbLine
 10
136.7383592365332
 20
31.51502338921294
 30
0.0
 11
135.9038086384247
 21
30.64395523962508
 31
0.0
  0
LINE
  5
3E0
330
242
100
AcDbEntity
  8
Sketch Geometry(ISO)
  6
CONTINUOUS_ACAD
 62
     7
370
    18
100
AcDbLine
 10
136.1097437925176
 20
33.11831096892745
 30
0.0
 11
136.1097437925176
 21
33.49717581005862
 31
0.0
  0
LINE
  5
3E1
330
242
100
AcDbEntity
  8
Sketch Geometry(ISO)
  6
CONTINUOUS_ACAD
 62
     7
370
    18
100
AcDbLine
 10
136.1097437925176
 20
33.49717581005862
 30
0.0
 11
137.1846438148267
 21
33.49717581005863
 31
0.0
  0
ARC
  5
3E2
330
242
100
AcDbEntity
  8
Sketch Geometry(ISO)
  6
CONTINUOUS_ACAD
 62
     7
370
    18
100
AcDbCircle
 10
137.0604953128987
 20
40.91286367398367
 30
0.0
 40
0.7469887463803613
100
AcDbArc
 50
358.065382440146
 51
72.30019059474345
  0
LINE
  5
3E3
330
242
100
AcDbEntity
  8
Sketch Geometry(ISO)
  6
CONTINUOUS_ACAD
 62
     7
370
    18
100
AcDbLine
 10
136.3821265002112
 20
41.96712769198511
 30
0.0
 11
143.1389054317222
 21
41.96712769198511
 31
0.0
  0
LINE
  5
3E4
330
242
100
AcDbEntity
  8
Sketch Geometry(ISO)
  6
CONTINUOUS_ACAD
 62
     7
370
    18
100
AcDbLine
 10
139.0497349527908
 20
41.37756450558708
 30
0.0
 11
142.0200353002834
 21
41.37756450558707
 31
0.0
  0
LINE
  5
3E5
330
242
100
AcDbEntity
  8
Sketch Geometry(ISO)
  6
CONTINUOUS_ACAD
 62
     7
370
    18
100
AcDbLine
 10
142.3185929658183
 20
38.66729104712353
 30
0.0
 11
142.3185929658183
 21
39.05175935219841
 31
0.0
  0
LINE
  5
3E6
330
242
100
AcDbEntity
  8
Sketch Geometry(ISO)
  6
CONTINUOUS_ACAD
 62
     7
370
    18
100
AcDbLine
 10
139.0497349527908
 20
38.0076908237872
 30
0.0
 11
141.6416132286902
 21
38.0076908237872
 31
0.0
  0
LINE
  5
3E7
330
242
100
AcDbEntity
  8
Sketch Geometry(ISO)
  6
CONTINUOUS_ACAD
 62
     7
370
    18
100
AcDbLine
 10
141.7062552925825
 20
37.42891370477666
 30
0.0
 11
139.0497349527908
 21
37.42891370477663
 31
0.0
  0
LINE
  5
3E8
330
242
100
AcDbEntity
  8
Sketch Geometry(ISO)
  6
CONTINUOUS_ACAD
 62
     7
370
    18
100
AcDbLine
 10
139.0497349527908
 20
41.37756450558708
 30
0.0
 11
139.0497349527908
 21
38.0076908237872
 31
0.0
  0
LINE
  5
3E9
330
242
100
AcDbEntity
  8
Sketch Geometry(ISO)
  6
CONTINUOUS_ACAD
 62
     7
370
    18
100
AcDbLine
 10
137.2876022207036
 20
41.62449183506653
 30
0.0
 11
136.3821265002111
 21
41.62449183506653
 31
0.0
  0
LINE
  5
3EA
330
242
100
AcDbEntity
  8
Sketch Geometry(ISO)
  6
CONTINUOUS_ACAD
 62
     7
370
    18
100
AcDbLine
 10
136.3821265002111
 20
41.62449183506653
 30
0.0
 11
136.3821265002112
 21
41.96712769198511
 31
0.0
  0
LINE
  5
3EB
330
242
100
AcDbEntity
  8
Sketch Geometry(ISO)
  6
CONTINUOUS_ACAD
 62
     7
370
    18
100
AcDbLine
 10
139.0497349527908
 20
37.42891370477663
 30
0.0
 11
139.049734952791
 21
34.33067846054691
 31
0.0
  0
LINE
  5
3EC
330
242
100
AcDbEntity
  8
Sketch Geometry(ISO)
  6
CONTINUOUS_ACAD
 62
     7
370
    18
100
AcDbLine
 10
143.5354946612489
 20
35.31572704748831
 30
0.0
 11
143.2324027890558
 21
34.31552386690196
 31
0.0
  0
LINE
  5
3ED
330
242
100
AcDbEntity
  8
Sketch Geometry(ISO)
  6
CONTINUOUS_ACAD
 62
     7
370
    18
100
AcDbLine
 10
147.2953329304226
 20
40.96841244700324
 30
0.0
 11
147.2953329304226
 21
34.19004908333223
 31
0.0
  0
LINE
  5
3EE
330
242
100
AcDbEntity
  8
Sketch Geometry(ISO)
  6
CONTINUOUS_ACAD
 62
     7
370
    18
100
AcDbLine
 10
142.6590501031463
 20
36.2940566086772
 30
0.0
 11
142.3185929658183
 21
36.29405660867749
 31
0.0
  0
LINE
  5
3EF
330
242
100
AcDbEntity
  8
Sketch Geometry(ISO)
  6
CONTINUOUS_ACAD
 62
     7
370
    18
100
AcDbLine
 10
142.6590501031459
 20
39.05175935219841
 30
0.0
 11
142.6590501031463
 21
36.2940566086772
 31
0.0
  0
LINE
  5
3F0
330
242
100
AcDbEntity
  8
Sketch Geometry(ISO)
  6
CONTINUOUS_ACAD
 62
     7
370
    18
100
AcDbLine
 10
142.3185929658183
 20
36.29405660867749
 30
0.0
 11
142.3185929658183
 21
36.74531877251035
 31
0.0
  0
ARC
  5
3F1
330
242
100
AcDbEntity
  8
Sketch Geometry(ISO)
  6
CONTINUOUS_ACAD
 62
     7
370
    18
100
AcDbCircle
 10
141.6308519576318
 20
36.74531877251065
 30
0.0
 40
0.6877410081865026
100
AcDbArc
 50
0.0
 51
83.70548581296571
  0
ARC
  5
3F2
330
242
100
AcDbEntity
  8
Sketch Geometry(ISO)
  6
CONTINUOUS_ACAD
 62
     7
370
    18
100
AcDbCircle
 10
141.6416132286902
 20
38.68489952346644
 30
0.0
 40
0.6772086996792471
100
AcDbArc
 50
270.0
 51
1.489947035782676
  0
LINE
  5
3F3
330
242
100
AcDbEntity
  8
Sketch Geometry(ISO)
  6
CONTINUOUS_ACAD
 62
     7
370
    18
100
AcDbLine
 10
143.5354946612489
 20
35.31572704748831
 30
0.0
 11
143.8537411270517
 21
35.31572704748831
 31
0.0
  0
LINE
  5
3F4
330
242
100
AcDbEntity
  8
Sketch Geometry(ISO)
  6
CONTINUOUS_ACAD
 62
     7
370
    18
100
AcDbLine
 10
137.807058276799
 20
40.93808128987491
 30
0.0
 11
137.807058276799
 21
34.1639779304495
 31
0.0
  0
ARC
  5
3F5
330
242
100
AcDbEntity
  8
Sketch Geometry(ISO)
  6
CONTINUOUS_ACAD
 62
     7
370
    18
100
AcDbCircle
 10
146.5376590263892
 20
34.23000561713436
 30
0.0
 40
0.7587267422772337
100
AcDbArc
 50
283.7579797119083
 51
356.9812580249066
  0
LINE
  5
3F6
330
242
100
AcDbEntity
  8
Sketch Geometry(ISO)
  6
CONTINUOUS_ACAD
 62
     7
370
    18
100
AcDbLine
 10
145.9568677432127
 20
33.49304753618342
 30
0.0
 11
146.718100308716
 21
33.49304753618342
 31
0.0
  0
LINE
  5
3F7
330
242
100
AcDbEntity
  8
Sketch Geometry(ISO)
  6
CONTINUOUS_ACAD
 62
     7
370
    18
100
AcDbLine
 10
145.9568677432127
 20
33.11621294359638
 30
0.0
 11
145.9568677432127
 21
33.49304753618342
 31
0.0
  0
LINE
  5
3F8
330
242
100
AcDbEntity
  8
Sketch Geometry(ISO)
  6
CONTINUOUS_ACAD
 62
     7
370
    18
100
AcDbLine
 10
143.8537411270517
 20
35.31572704748831
 30
0.0
 11
143.6718860037359
 21
33.11831096892745
 31
0.0
  0
LINE
  5
3F9
330
242
100
AcDbEntity
  8
Sketch Geometry(ISO)
  6
CONTINUOUS_ACAD
 62
     1
370
    18
100
AcDbLine
 10
148.6603457308655
 20
30.36864548668034
 30
0.0
 11
148.6603457308655
 21
29.85706536384079
 31
0.0
  0
LINE
  5
3FA
330
242
100
AcDbEntity
  8
Sketch Geometry(ISO)
  6
CONTINUOUS_ACAD
 62
     1
370
    18
100
AcDbLine
 10
146.8056977643303
 20
30.47124551584519
 30
0.0
 11
145.8056779048926
 21
31.51502338921307
 31
0.0
  0
LINE
  5
3FB
330
242
100
AcDbEntity
  8
Sketch Geometry(ISO)
  6
CONTINUOUS_ACAD
 62
     7
370
    18
100
AcDbLine
 10
143.1389054317222
 20
41.96712769198511
 30
0.0
 11
143.3581923747342
 21
39.92501798480765
 31
0.0
  0
ARC
  5
3FC
330
242
100
AcDbEntity
  8
Sketch Geometry(ISO)
  6
CONTINUOUS_ACAD
 62
     7
370
    18
100
AcDbCircle
 10
142.1252154320802
 20
40.68068614017568
 30
0.0
 40
0.7047711091576076
100
AcDbArc
 50
7.670400320451732
 51
98.58289354625499
  0
LINE
  5
3FD
330
242
100
AcDbEntity
  8
Sketch Geometry(ISO)
  6
CONTINUOUS_ACAD
 62
     7
370
    18
100
AcDbLine
 10
143.0044582798257
 20
39.88703311649284
 30
0.0
 11
142.8236804511461
 21
40.77475490993709
 31
0.0
  0
LINE
  5
3FE
330
242
100
AcDbEntity
  8
Sketch Geometry(ISO)
  6
CONTINUOUS_ACAD
 62
     7
370
    18
100
AcDbLine
 10
143.3581923747342
 20
39.92501798480765
 30
0.0
 11
143.0044582798257
 21
39.88703311649284
 31
0.0
  0
LINE
  5
3FF
330
242
100
AcDbEntity
  8
Sketch Geometry(ISO)
  6
CONTINUOUS_ACAD
 62
     7
370
    18
100
AcDbLine
 10
142.3185929658183
 20
39.05175935219841
 30
0.0
 11
142.6590501031459
 21
39.05175935219841
 31
0.0
  0
LINE
  5
400
330
242
100
AcDbEntity
  8
Sketch Geometry(ISO)
  6
CONTINUOUS_ACAD
 62
     1
370
    18
100
AcDbLine
 10
175.6295162313388
 20
29.85706536384079
 30
0.0
 11
175.6295162313388
 21
30.36864548668034
 31
0.0
  0
LINE
  5
401
330
242
100
AcDbEntity
  8
Sketch Geometry(ISO)
  6
CONTINUOUS_ACAD
 62
     1
370
    18
100
AcDbLine
 10
148.6603457308655
 20
29.85706536384079
 30
0.0
 11
175.6295162313388
 21
29.85706536384079
 31
0.0
  0
LINE
  5
402
330
242
100
AcDbEntity
  8
Sketch Geometry(ISO)
  6
CONTINUOUS_ACAD
 62
     1
370
    18
100
AcDbLine
 10
175.6295162313388
 20
30.36864548668034
 30
0.0
 11
148.6603457308655
 21
30.36864548668034
 31
0.0
  0
LINE
  5
403
330
242
100
AcDbEntity
  8
Sketch Geometry(ISO)
  6
CONTINUOUS_ACAD
 62
     7
370
    18
100
AcDbLine
 10
159.3735558034684
 20
33.10296185342283
 30
0.0
 11
159.4283890898879
 21
33.28391169903226
 31
0.0
  0
ARC
  5
404
330
242
100
AcDbEntity
  8
Sketch Geometry(ISO)
  6
CONTINUOUS_ACAD
 62
     7
370
    18
100
AcDbCircle
 10
149.2317352488414
 20
34.23266573894872
 30
0.0
 40
0.7555292194652674
100
AcDbArc
 50
203.8678355571255
 51
258.2205207993906
  0
LINE
  5
405
330
242
100
AcDbEntity
  8
Sketch Geometry(ISO)
  6
CONTINUOUS_ACAD
 62
     7
370
    18
100
AcDbLine
 10
149.0774973948495
 20
33.49304753618343
 30
0.0
 11
149.9136308709488
 21
33.49304753618342
 31
0.0
  0
LINE
  5
406
330
242
100
AcDbEntity
  8
Sketch Geometry(ISO)
  6
CONTINUOUS_ACAD
 62
     7
370
    18
100
AcDbLine
 10
149.986195617437
 20
41.70739500424215
 30
0.0
 11
148.540817945555
 21
41.70739500424215
 31
0.0
  0
LINE
  5
407
330
242
100
AcDbEntity
  8
Sketch Geometry(ISO)
  6
CONTINUOUS_ACAD
 62
     7
370
    18
100
AcDbLine
 10
148.540817945555
 20
37.14319332318921
 30
0.0
 11
148.540817945555
 21
41.70739500424215
 31
0.0
  0
LINE
  5
408
330
242
100
AcDbEntity
  8
Sketch Geometry(ISO)
  6
CONTINUOUS_ACAD
 62
     7
370
    18
100
AcDbLine
 10
148.540817945555
 20
33.92695724792318
 30
0.0
 11
148.540817945555
 21
36.82939443260041
 31
0.0
  0
LINE
  5
409
330
242
100
AcDbEntity
  8
Sketch Geometry(ISO)
  6
CONTINUOUS_ACAD
 62
     7
370
    18
100
AcDbLine
 10
145.9268370495981
 20
41.98416946988195
 30
0.0
 11
149.986195617437
 21
41.98416946988195
 31
0.0
  0
LINE
  5
40A
330
242
100
AcDbEntity
  8
Sketch Geometry(ISO)
  6
CONTINUOUS_ACAD
 62
     7
370
    18
100
AcDbLine
 10
149.9136308709488
 20
33.11621294359638
 30
0.0
 11
145.9568677432127
 21
33.11621294359638
 31
0.0
  0
LINE
  5
40B
330
242
100
AcDbEntity
  8
Sketch Geometry(ISO)
  6
CONTINUOUS_ACAD
 62
     7
370
    18
100
AcDbLine
 10
149.9136308709488
 20
33.49304753618342
 30
0.0
 11
149.9136308709488
 21
33.11621294359638
 31
0.0
  0
ARC
  5
40C
330
242
100
AcDbEntity
  8
Sketch Geometry(ISO)
  6
CONTINUOUS_ACAD
 62
     7
370
    18
100
AcDbCircle
 10
146.3368756844528
 20
40.7212546308712
 30
0.0
 40
0.9898117388812394
100
AcDbArc
 50
14.45986954067649
 51
85.06360990480411
  0
LINE
  5
40D
330
242
100
AcDbEntity
  8
Sketch Geometry(ISO)
  6
CONTINUOUS_ACAD
 62
     7
370
    18
100
AcDbLine
 10
146.4220486991635
 20
41.70739500424215
 30
0.0
 11
145.9268370495981
 21
41.70739500424215
 31
0.0
  0
LINE
  5
40E
330
242
100
AcDbEntity
  8
Sketch Geometry(ISO)
  6
CONTINUOUS_ACAD
 62
     7
370
    18
100
AcDbLine
 10
145.9268370495981
 20
41.70739500424215
 30
0.0
 11
145.9268370495981
 21
41.98416946988195
 31
0.0
  0
ARC
  5
40F
330
242
100
AcDbEntity
  8
Sketch Geometry(ISO)
  6
CONTINUOUS_ACAD
 62
     7
370
    18
100
AcDbCircle
 10
150.5171197140356
 20
39.12637848801547
 30
0.0
 40
2.906690505091034
100
AcDbArc
 50
26.73269879166254
 51
100.5244953658555
  0
ARC
  5
410
330
242
100
AcDbEntity
  8
Sketch Geometry(ISO)
  6
CONTINUOUS_ACAD
 62
     7
370
    18
100
AcDbCircle
 10
150.957289585664
 20
39.53199939728282
 30
0.0
 40
2.336888734327936
100
AcDbArc
 50
282.9642598519832
 51
22.70193037844848
  0
ARC
  5
411
330
242
100
AcDbEntity
  8
Sketch Geometry(ISO)
  6
CONTINUOUS_ACAD
 62
     7
370
    18
100
AcDbCircle
 10
149.7024653346136
 20
39.41099089891019
 30
0.0
 40
2.313865745538523
100
AcDbArc
 50
281.4522871515732
 51
82.95656411023186
  0
LINE
  5
412
330
242
100
AcDbEntity
  8
Sketch Geometry(ISO)
  6
CONTINUOUS_ACAD
 62
     7
370
    18
100
AcDbLine
 10
150.1618876282939
 20
36.82939443260041
 30
0.0
 11
148.540817945555
 21
36.82939443260041
 31
0.0
  0
LINE
  5
413
330
242
100
AcDbEntity
  8
Sketch Geometry(ISO)
  6
CONTINUOUS_ACAD
 62
     7
370
    18
100
AcDbLine
 10
148.540817945555
 20
37.14319332318921
 30
0.0
 11
150.1618876282939
 21
37.14319332318921
 31
0.0
  0
ARC
  5
414
330
242
100
AcDbEntity
  8
Sketch Geometry(ISO)
  6
CONTINUOUS_ACAD
 62
     7
370
    18
100
AcDbCircle
 10
145.0574978337099
 20
29.20567244294297
 30
0.0
 40
9.174744255326107
100
AcDbArc
 50
40.13297681672546
 51
56.19609361297648
  0
ARC
  5
415
330
242
100
AcDbEntity
  8
Sketch Geometry(ISO)
  6
CONTINUOUS_ACAD
 62
     7
370
    18
100
AcDbCircle
 10
140.9828681073053
 20
24.27141303148241
 30
0.0
 40
16.6969331544594
100
AcDbArc
 50
43.29080613025119
 51
51.03987823246259
  0
ARC
  5
416
330
242
100
AcDbEntity
  8
Sketch Geometry(ISO)
  6
CONTINUOUS_ACAD
 62
     7
370
    18
100
AcDbCircle
 10
144.6020344191325
 20
26.32137869055188
 30
0.0
 40
12.69556206325385
100
AcDbArc
 50
40.70940330773501
 51
47.76115907009479
  0
ARC
  5
417
330
242
100
AcDbEntity
  8
Sketch Geometry(ISO)
  6
CONTINUOUS_ACAD
 62
     7
370
    18
100
AcDbCircle
 10
158.8762514677249
 20
40.90690879441194
 30
0.0
 40
8.932670134752644
100
AcDbArc
 50
220.3838915613148
 51
231.5920830405884
  0
LINE
  5
418
330
242
100
AcDbEntity
  8
Sketch Geometry(ISO)
  6
CONTINUOUS_ACAD
 62
     7
370
    18
100
AcDbLine
 10
158.7827946941462
 20
35.37160189399552
 30
0.0
 11
159.091278660378
 21
35.37160189399552
 31
0.0
  0
LINE
  5
419
330
242
100
AcDbEntity
  8
Sketch Geometry(ISO)
  6
CONTINUOUS_ACAD
 62
     7
370
    18
100
AcDbLine
 10
158.7827946941462
 20
35.37160189399552
 30
0.0
 11
159.1500680314156
 21
33.10296185342283
 31
0.0
  0
ARC
  5
41A
330
242
100
AcDbEntity
  8
Sketch Geometry(ISO)
  6
CONTINUOUS_ACAD
 62
     7
370
    18
100
AcDbCircle
 10
157.1492256200603
 20
37.11724892920301
 30
0.0
 40
3.856864382510258
100
AcDbArc
 50
220.7094033077351
 51
243.4327312077848
  0
ARC
  5
41B
330
242
100
AcDbEntity
  8
Sketch Geometry(ISO)
  6
CONTINUOUS_ACAD
 62
     7
370
    18
100
AcDbCircle
 10
155.772891204607
 20
36.50036177452046
 30
0.0
 40
3.564823358415056
100
AcDbArc
 50
226.6714173869075
 51
259.2817293774281
  0
ARC
  5
41C
330
242
100
AcDbEntity
  8
Sketch Geometry(ISO)
  6
CONTINUOUS_ACAD
 62
     7
370
    18
100
AcDbCircle
 10
156.836788809244
 20
35.97495469715656
 30
0.0
 40
2.70536639225971
100
AcDbArc
 50
238.5251126944697
 51
270.0
  0
LINE
  5
41D
330
242
100
AcDbEntity
  8
Sketch Geometry(ISO)
  6
CONTINUOUS_ACAD
 62
     7
370
    18
100
AcDbLine
 10
156.836788809244
 20
32.99773196157085
 30
0.0
 11
155.109905556091
 21
32.99773196157084
 31
0.0
  0
LINE
  5
41E
330
242
100
AcDbEntity
  8
Sketch Geometry(ISO)
  6
CONTINUOUS_ACAD
 62
     7
370
    18
100
AcDbLine
 10
156.836788809244
 20
33.26958830489685
 30
0.0
 11
156.836788809244
 21
32.99773196157085
 31
0.0
  0
LINE
  5
41F
330
242
100
AcDbEntity
  8
Sketch Geometry(ISO)
  6
CONTINUOUS_ACAD
 62
     7
370
    18
100
AcDbLine
 10
155.109905556091
 20
32.99773196157084
 30
0.0
 11
155.109905556091
 21
32.99968051091815
 31
0.0
  0
ARC
  5
420
330
242
100
AcDbEntity
  8
Sketch Geometry(ISO)
  6
CONTINUOUS_ACAD
 62
     7
370
    18
100
AcDbCircle
 10
161.4701380824508
 20
38.62456231685784
 30
0.0
 40
3.592344269332347
100
AcDbArc
 50
62.25220845887818
 51
110.8096881097972
  0
LINE
  5
421
330
242
100
AcDbEntity
  8
Sketch Geometry(ISO)
  6
CONTINUOUS_ACAD
 62
     7
370
    18
100
AcDbLine
 10
163.5697074490312
 20
41.96446463385914
 30
0.0
 11
163.4020199525485
 21
41.8038070543676
 31
0.0
  0
LINE
  5
422
330
242
100
AcDbEntity
  8
Sketch Geometry(ISO)
  6
CONTINUOUS_ACAD
 62
     7
370
    18
100
AcDbLine
 10
163.5697074490312
 20
41.96446463385914
 30
0.0
 11
163.7996543556428
 21
41.96446463385914
 31
0.0
  0
LINE
  5
423
330
242
100
AcDbEntity
  8
Sketch Geometry(ISO)
  6
CONTINUOUS_ACAD
 62
     7
370
    18
100
AcDbLine
 10
163.4020199525485
 20
41.8038070543676
 30
0.0
 11
163.142663193898
 21
41.8038070543676
 31
0.0
  0
LINE
  5
424
330
242
100
AcDbEntity
  8
Sketch Geometry(ISO)
  6
CONTINUOUS_ACAD
 62
     7
370
    18
100
AcDbLine
 10
163.7996543556428
 20
41.96446463385914
 30
0.0
 11
164.10721567289
 21
40.06466454375235
 31
0.0
  0
ARC
  5
425
330
242
100
AcDbEntity
  8
Sketch Geometry(ISO)
  6
CONTINUOUS_ACAD
 62
     7
370
    18
100
AcDbCircle
 10
161.5530162788555
 20
39.46577000957755
 30
0.0
 40
2.28279934543278
100
AcDbArc
 50
15.20960393325718
 51
108.5781788025579
  0
ARC
  5
426
330
242
100
AcDbEntity
  8
Sketch Geometry(ISO)
  6
CONTINUOUS_ACAD
 62
     7
370
    18
100
AcDbCircle
 10
161.2312554746254
 20
40.42306879057798
 30
0.0
 40
1.272873124739543
100
AcDbArc
 50
108.57817880256
 51
231.8186647129063
  0
ARC
  5
427
330
242
100
AcDbEntity
  8
Sketch Geometry(ISO)
  6
CONTINUOUS_ACAD
 62
     7
370
    18
100
AcDbCircle
 10
160.9124442066014
 20
40.09195432508899
 30
0.0
 40
2.022547542051841
100
AcDbArc
 50
110.8096881097966
 51
229.7592170607357
  0
LINE
  5
428
330
242
100
AcDbEntity
  8
Sketch Geometry(ISO)
  6
CONTINUOUS_ACAD
 62
     7
370
    18
100
AcDbLine
 10
164.10721567289
 20
40.06466454375235
 30
0.0
 11
163.7558549448598
 21
40.06466454375235
 31
0.0
  0
LINE
  5
429
330
242
100
AcDbEntity
  8
Sketch Geometry(ISO)
  6
CONTINUOUS_ACAD
 62
     7
370
    18
100
AcDbLine
 10
160.4444259469803
 20
39.4225163001458
 30
0.0
 11
160.6479774396501
 21
39.26244441350283
 31
0.0
  0
ARC
  5
42A
330
242
100
AcDbEntity
  8
Sketch Geometry(ISO)
  6
CONTINUOUS_ACAD
 62
     7
370
    18
100
AcDbCircle
 10
167.9276104182948
 20
47.38076045662679
 30
0.0
 40
12.13538957445691
100
AcDbArc
 50
226.7060885191224
 51
242.2640809537411
  0
ARC
  5
42B
330
242
100
AcDbEntity
  8
Sketch Geometry(ISO)
  6
CONTINUOUS_ACAD
 62
     7
370
    18
100
AcDbCircle
 10
162.1212399354459
 20
35.3744099303153
 30
0.0
 40
2.349352387856274
100
AcDbArc
 50
5.812465713302303
 51
56.96974444854597
  0
ARC
  5
42C
330
242
100
AcDbEntity
  8
Sketch Geometry(ISO)
  6
CONTINUOUS_ACAD
 62
     7
370
    18
100
AcDbCircle
 10
172.755821743604
 20
53.70760387544598
 30
0.0
 40
18.84840909917213
100
AcDbArc
 50
230.0304671335736
 51
240.2461455100653
  0
ARC
  5
42D
330
242
100
AcDbEntity
  8
Sketch Geometry(ISO)
  6
CONTINUOUS_ACAD
 62
     7
370
    18
100
AcDbCircle
 10
182.6757822558207
 20
31.40832659917116
 30
0.0
 40
1.12420723094698
100
AcDbArc
 50
183.4485971136698
 51
263.2975929404511
  0
LINE
  5
42E
330
242
100
AcDbEntity
  8
Sketch Geometry(ISO)
  6
CONTINUOUS_ACAD
 62
     7
370
    18
100
AcDbLine
 10
178.8830555747337
 20
29.83112863370736
 30
0.0
 11
178.8830555747337
 21
30.2918024846464
 31
0.0
  0
LINE
  5
42F
330
242
100
AcDbEntity
  8
Sketch Geometry(ISO)
  6
CONTINUOUS_ACAD
 62
     7
370
    18
100
AcDbLine
 10
178.8830555747337
 20
30.2918024846464
 30
0.0
 11
179.4805826994281
 21
30.2918024846464
 31
0.0
  0
LINE
  5
430
330
242
100
AcDbEntity
  8
Sketch Geometry(ISO)
  6
CONTINUOUS_ACAD
 62
     7
370
    18
100
AcDbLine
 10
183.5316735189297
 20
29.83112863370736
 30
0.0
 11
178.8830555747337
 21
29.83112863370736
 31
0.0
  0
ARC
  5
431
330
242
100
AcDbEntity
  8
Sketch Geometry(ISO)
  6
CONTINUOUS_ACAD
 62
     7
370
    18
100
AcDbCircle
 10
179.4685390873549
 20
31.39820434497361
 30
0.0
 40
1.106467408072777
100
AcDbArc
 50
269.3763379169344
 51
352.7922856076719
  0
ARC
  5
432
330
242
100
AcDbEntity
  8
Sketch Geometry(ISO)
  6
CONTINUOUS_ACAD
 62
     7
370
    18
100
AcDbCircle
 10
172.7919859789266
 20
51.72678793767909
 30
0.0
 40
18.4870082501753
100
AcDbArc
 50
267.1776652275068
 51
267.8936768180167
  0
ARC
  5
433
330
242
100
AcDbEntity
  8
Sketch Geometry(ISO)
  6
CONTINUOUS_ACAD
 62
     7
370
    18
100
AcDbCircle
 10
172.2881453734119
 20
38.38183346095937
 30
0.0
 40
5.460249349820256
100
AcDbArc
 50
267.5537157622909
 51
278.6905453670297
  0
ARC
  5
434
330
242
100
AcDbEntity
  8
Sketch Geometry(ISO)
  6
CONTINUOUS_ACAD
 62
     7
370
    18
100
AcDbCircle
 10
172.2421477821939
 20
36.77693828387718
 30
0.0
 40
3.527050806590523
100
AcDbArc
 50
267.8936768180171
 51
344.2786924858666
  0
ARC
  5
435
330
242
100
AcDbEntity
  8
Sketch Geometry(ISO)
  6
CONTINUOUS_ACAD
 62
     7
370
    18
100
AcDbCircle
 10
172.6210062620611
 20
37.55776597074917
 30
0.0
 40
4.599897721625063
100
AcDbArc
 50
276.1421716975607
 51
82.89286959380444
  0
ARC
  5
436
330
242
100
AcDbEntity
  8
Sketch Geometry(ISO)
  6
CONTINUOUS_ACAD
 62
     7
370
    18
100
AcDbCircle
 10
179.2845704708843
 20
39.36965923476694
 30
0.0
 40
2.328744413514124
100
AcDbArc
 50
56.60696756582305
 51
87.08393193781242
  0
LINE
  5
437
330
242
100
AcDbEntity
  8
Sketch Geometry(ISO)
  6
CONTINUOUS_ACAD
 62
     7
370
    18
100
AcDbLine
 10
179.4030407309109
 20
41.69538822606534
 30
0.0
 11
178.9709006007321
 21
41.69538822606533
 31
0.0
  0
LINE
  5
438
330
242
100
AcDbEntity
  8
Sketch Geometry(ISO)
  6
CONTINUOUS_ACAD
 62
     7
370
    18
100
AcDbLine
 10
178.9709006007321
 20
41.69538822606533
 30
0.0
 11
178.9709006007321
 21
42.12081822737407
 31
0.0
  0
ARC
  5
439
330
242
100
AcDbEntity
  8
Sketch Geometry(ISO)
  6
CONTINUOUS_ACAD
 62
     7
370
    18
100
AcDbCircle
 10
170.5717924706307
 20
37.24712431901378
 30
0.0
 40
5.262320749425031
100
AcDbArc
 50
344.2786924858665
 51
36.26259189651451
  0
ARC
  5
43A
330
242
100
AcDbEntity
  8
Sketch Geometry(ISO)
  6
CONTINUOUS_ACAD
 62
     7
370
    18
100
AcDbCircle
 10
172.6174459292001
 20
37.37486696252652
 30
0.0
 40
4.177955851326371
100
AcDbArc
 50
172.4340468239056
 51
259.8572405806371
  0
ARC
  5
43B
330
242
100
AcDbEntity
  8
Sketch Geometry(ISO)
  6
CONTINUOUS_ACAD
 62
     7
370
    18
100
AcDbCircle
 10
171.652425464485
 20
37.51332019972517
 30
0.0
 40
4.604400491663247
100
AcDbArc
 50
94.56991720728444
 51
275.0170075405719
  0
ARC
  5
43C
330
242
100
AcDbEntity
  8
Sketch Geometry(ISO)
  6
CONTINUOUS_ACAD
 62
     7
370
    18
100
AcDbCircle
 10
172.0675676127221
 20
38.34437756967243
 30
0.0
 40
3.407244478276231
100
AcDbArc
 50
36.26259189651417
 51
85.28533039672877
  0
ARC
  5
43D
330
242
100
AcDbEntity
  8
Sketch Geometry(ISO)
  6
CONTINUOUS_ACAD
 62
     7
370
    18
100
AcDbCircle
 10
172.7637841895103
 20
-9.954992033700396
 30
0.0
 40
52.07905779243873
100
AcDbArc
 50
89.53094387807677
 51
91.62650729122701
  0
ARC
  5
43E
330
242
100
AcDbEntity
  8
Sketch Geometry(ISO)
  6
CONTINUOUS_ACAD
 62
     7
370
    18
100
AcDbCircle
 10
172.0529366637332
 20
38.16697410357546
 30
0.0
 40
3.585250249113969
100
AcDbArc
 50
85.28533039672847
 51
183.8704455164119
  0
LINE
  5
43F
330
242
100
AcDbEntity
  8
Sketch Geometry(ISO)
  6
CONTINUOUS_ACAD
 62
     7
370
    18
100
AcDbLine
 10
191.266025322743
 20
32.47326338192227
 30
0.0
 11
191.2660253227426
 21
40.86497606069582
 31
0.0
  0
LINE
  5
440
330
242
100
AcDbEntity
  8
Sketch Geometry(ISO)
  6
CONTINUOUS_ACAD
 62
     7
370
    18
100
AcDbLine
 10
192.2505130215134
 20
41.05003346921343
 30
0.0
 11
192.2505130215134
 21
29.72571237358906
 31
0.0
  0
LINE
  5
441
330
242
100
AcDbEntity
  8
Sketch Geometry(ISO)
  6
CONTINUOUS_ACAD
 62
     7
370
    18
100
AcDbLine
 10
189.3749083702509
 20
41.73122328531364
 30
0.0
 11
189.3749083702509
 21
42.12081822737387
 31
0.0
  0
LINE
  5
442
330
242
100
AcDbEntity
  8
Sketch Geometry(ISO)
  6
CONTINUOUS_ACAD
 62
     7
370
    18
100
AcDbLine
 10
182.0229222769413
 20
42.12081822737388
 30
0.0
 11
191.266025322743
 21
32.47326338192227
 31
0.0
  0
LINE
  5
443
330
242
100
AcDbEntity
  8
Sketch Geometry(ISO)
  6
CONTINUOUS_ACAD
 62
     7
370
    18
100
AcDbLine
 10
181.5536107771007
 20
40.34473639418195
 30
0.0
 11
191.7274563618655
 21
29.72571237358943
 31
0.0
  0
LINE
  5
444
330
242
100
AcDbEntity
  8
Sketch Geometry(ISO)
  6
CONTINUOUS_ACAD
 62
     7
370
    18
100
AcDbLine
 10
192.2505130215134
 20
29.72571237358906
 30
0.0
 11
191.7274563618655
 21
29.72571237358943
 31
0.0
  0
LINE
  5
445
330
242
100
AcDbEntity
  8
Sketch Geometry(ISO)
  6
CONTINUOUS_ACAD
 62
     7
370
    18
100
AcDbLine
 10
181.5536107771007
 20
40.34473639418195
 30
0.0
 11
181.5536107771009
 21
31.34070211794372
 31
0.0
  0
LINE
  5
446
330
242
100
AcDbEntity
  8
Sketch Geometry(ISO)
  6
CONTINUOUS_ACAD
 62
     7
370
    18
100
AcDbLine
 10
180.5662629877748
 20
31.25937940638551
 30
0.0
 11
180.5662629877748
 21
41.3139624095882
 31
0.0
  0
LINE
  5
447
330
242
100
AcDbEntity
  8
Sketch Geometry(ISO)
  6
CONTINUOUS_ACAD
 62
     7
370
    18
100
AcDbLine
 10
182.5445732629956
 20
30.2918024846464
 30
0.0
 11
183.5316735189297
 21
30.2918024846464
 31
0.0
  0
LINE
  5
448
330
242
100
AcDbEntity
  8
Sketch Geometry(ISO)
  6
CONTINUOUS_ACAD
 62
     7
370
    18
100
AcDbLine
 10
183.5316735189297
 20
30.2918024846464
 30
0.0
 11
183.5316735189297
 21
29.83112863370736
 31
0.0
  0
LINE
  5
449
330
242
100
AcDbEntity
  8
Sketch Geometry(ISO)
  6
CONTINUOUS_ACAD
 62
     7
370
    18
100
AcDbLine
 10
178.9709006007321
 20
42.12081822737407
 30
0.0
 11
182.0229222769413
 21
42.12081822737388
 31
0.0
  0
LINE
  5
44A
330
242
100
AcDbEntity
  8
Sketch Geometry(ISO)
  6
CONTINUOUS_ACAD
 62
     7
370
    18
100
AcDbLine
 10
189.3749083702509
 20
42.12081822737387
 30
0.0
 11
194.0232474083051
 21
42.12081822737387
 31
0.0
  0
LINE
  5
44B
330
242
100
AcDbEntity
  8
Sketch Geometry(ISO)
  6
CONTINUOUS_ACAD
 62
     7
370
    18
100
AcDbLine
 10
190.2192577904394
 20
41.73122328531364
 30
0.0
 11
189.3749083702509
 21
41.73122328531364
 31
0.0
  0
ARC
  5
44C
330
242
100
AcDbEntity
  8
Sketch Geometry(ISO)
  6
CONTINUOUS_ACAD
 62
     7
370
    18
100
AcDbCircle
 10
190.1499363255331
 20
40.58187851296409
 30
0.0
 40
1.151433398518552
100
AcDbArc
 50
14.23297755352669
 51
93.45155061879863
  0
ARC
  5
44D
330
242
100
AcDbEntity
  8
Sketch Geometry(ISO)
  6
CONTINUOUS_ACAD
 62
     7
370
    18
100
AcDbCircle
 10
193.1925794818321
 20
40.74413677832381
 30
0.0
 40
0.9904857400057275
100
AcDbArc
 50
94.74819194538676
 51
162.0109621267226
  0
LINE
  5
44E
330
242
100
AcDbEntity
  8
Sketch Geometry(ISO)
  6
CONTINUOUS_ACAD
 62
     7
370
    18
100
AcDbLine
 10
194.0232474083051
 20
41.73122328531364
 30
0.0
 11
193.1105902820963
 21
41.73122328531364
 31
0.0
  0
LINE
  5
44F
330
242
100
AcDbEntity
  8
Sketch Geometry(ISO)
  6
CONTINUOUS_ACAD
 62
     7
370
    18
100
AcDbLine
 10
194.0232474083051
 20
42.12081822737387
 30
0.0
 11
194.0232474083051
 21
41.73122328531364
 31
0.0
  0
LINE
  5
450
330
242
100
AcDbEntity
  8
Sketch Geometry(ISO)
  6
CONTINUOUS_ACAD
 62
     7
370
    25
100
AcDbLine
 10
200.0
 20
10.00000000000023
 30
0.0
 11
200.0
 21
45.00000000000023
 31
0.0
  0
LINE
  5
451
330
242
100
AcDbEntity
  8
Sketch Geometry(ISO)
  6
Continuous
 62
     7
370
    25
100
AcDbLine
 10
200.0
 20
10.00000000000023
 30
0.0
 11
200.0
 21
287.0
 31
0.0
  0
MTEXT
  5
453
330
242
100
AcDbEntity
  8
Symbols(ISO)
 62
     7
100
AcDbMText
 10
101.2463941498535
 20
23.73634692860933
 30
0.0
 40
1.500000059604644
 41
0.0
 71
     7
 72
     1
  1
P.C.HENDERSON LIMITED, BOWBURN, DURHAM DH6 5NG ENGLAND
  7
Text Style171
 73
     1
 44
1.0
1001
ACAD
1000
MTEXTBEGIN
1070
    73
1070
     1
1070
    44
1040
1.0
1070
    74
1070
     0
1000
MTEXTEND
  0
MTEXT
  5
455
330
242
100
AcDbEntity
  8
Symbols(ISO)
 62
     7
100
AcDbMText
 10
101.7728498341913
 20
20.79341816364022
 30
0.0
 40
1.500000059604644
 41
0.0
 71
     7
 72
     1
  1
Telephone: (0191) 3770701        Fax No.: (0191) 3771309
  7
Text Style171
 73
     1
 44
1.0
1001
ACAD
1000
MTEXTBEGIN
1070
    73
1070
     1
1070
    44
1040
1.0
1070
    74
1070
     0
1000
MTEXTEND
  0
MTEXT
  5
457
330
242
100
AcDbEntity
  8
Symbols(ISO)
 62
     7
100
AcDbMText
 10
110.2660084085957
 20
17.04551236239296
 30
0.0
 40
1.800000071525573
 41
0.0
 71
     7
 72
     1
  1
................................................................
  7
Text Style168
 73
     1
 44
1.0
1001
ACAD
1000
MTEXTBEGIN
1070
    73
1070
     1
1070
    44
1040
1.0
1070
    74
1070
     0
1000
MTEXTEND
  0
MTEXT
  5
459
330
242
100
AcDbEntity
  8
Symbols(ISO)
 62
     7
100
AcDbMText
 10
117.5324041861373
 20
12.59909847985056
 30
0.0
 40
2.5
 41
0.0
 71
     7
 72
     1
  1
www.pchenderson.com
  7
Text Style169
 73
     1
 44
1.0
1001
ACAD
1000
MTEXTBEGIN
1070
    73
1070
     1
1070
    44
1040
1.0
1070
    74
1070
     0
1000
MTEXTEND
  0
MTEXT
  5
45B
330
242
100
AcDbEntity
  8
Symbols(ISO)
 62
     7
100
AcDbMText
 10
11.49221956798908
 20
16.63434934845192
 30
0.0
 40
2.000000029802322
 41
0.0
 71
     7
 72
     1
  1
Drawing-size:
  7
Text Style175
 73
     1
 44
1.0
1001
ACAD
1000
MTEXTBEGIN
1070
    73
1070
     1
1070
    44
1040
1.0
1070
    74
1070
     0
1000
MTEXTEND
  0
MTEXT
  5
45C
330
242
100
AcDbEntity
  8
Symbols(ISO)
 62
     7
100
AcDbMText
 10
11.49221956798908
 20
28.67986058871006
 30
0.0
 40
2.000000029802322
 41
0.0
 71
     7
 72
     1
  1
PCH-code:
  7
Text Style175
 73
     1
 44
1.0
1001
ACAD
1000
MTEXTBEGIN
1070
    73
1070
     1
1070
    44
1040
1.0
1070
    74
1070
     0
1000
MTEXTEND
  0
MTEXT
  5
45D
330
242
100
AcDbEntity
  8
Symbols(ISO)
 62
     7
100
AcDbMText
 10
11.39781932491779
 20
22.49851508063875
 30
0.0
 40
2.000000029802322
 41
0.0
 71
     7
 72
     1
  1
CAD-scale:
  7
Text Style175
 73
     1
 44
1.0
1001
ACAD
1000
MTEXTBEGIN
1070
    73
1070
     1
1070
    44
1040
1.0
1070
    74
1070
     0
1000
MTEXTEND
  0
MTEXT
  5
45E
330
242
100
AcDbEntity
  8
Symbols(ISO)
 62
     7
100
AcDbMText
 10
11.49221956798908
 20
12.15982176465988
 30
0.0
 40
2.000000029802322
 41
0.0
 71
     7
 72
     1
  1
Revision:
  7
Text Style175
 73
     1
 44
1.0
1001
ACAD
1000
MTEXTBEGIN
1070
    73
1070
     1
1070
    44
1040
1.0
1070
    74
1070
     0
1000
MTEXTEND
  0
MTEXT
  5
45F
330
242
100
AcDbEntity
  8
Symbols(ISO)
 62
     7
100
AcDbMText
 10
11.49221956798908
 20
41.33868184548543
 30
0.0
 40
2.000000029802322
 41
0.0
 71
     7
 72
     1
  1
Description:
  7
Text Style175
 73
     1
 44
1.0
1001
ACAD
1000
MTEXTBEGIN
1070
    73
1070
     1
1070
    44
1040
1.0
1070
    74
1070
     0
1000
MTEXTEND
  0
ENDBLK
  5
244
330
242
100
AcDbEntity
  8
0
100
AcDbBlockEnd
  0
BLOCK
  5
4B7
330
4B6
100
AcDbEntity
  8
0
100
AcDbBlockBegin
  2
*D7
 70
     1
 10
0.0
 20
0.0
 30
0.0
  3
*D7
  1

  0
LINE
  5
58F
330
4B6
100
AcDbEntity
  8
Dimensions(ISO)
  6
Continuous
 62
     7
370
    25
100
AcDbLine
 10
64.18978931662863
 20
157.1355746672365
 30
0.0
 11
64.18978931662863
 21
99.51820049929754
 31
0.0
  0
LINE
  5
590
330
4B6
100
AcDbEntity
  8
Dimensions(ISO)
  6
Continuous
 62
     7
370
    25
100
AcDbLine
 10
155.5897893166286
 20
157.1355746672365
 30
0.0
 11
155.5897893166286
 21
99.51820049929754
 31
0.0
  0
LINE
  5
591
330
4B6
100
AcDbEntity
  8
Dimensions(ISO)
  6
Continuous
 62
     7
370
    25
100
AcDbLine
 10
69.18978931662863
 20
105.8682004992975
 30
0.0
 11
150.5897893166286
 21
105.8682004992975
 31
0.0
  0
SOLID
  5
592
330
4B6
100
AcDbEntity
  8
Dimensions(ISO)
  6
Continuous
 62
     7
100
AcDbTrace
 10
69.18978931662863
 20
106.7015338326308
 30
0.0
 11
69.18978931662863
 21
105.0348671659642
 31
0.0
 12
64.18978931662863
 22
105.8682004992975
 32
0.0
 13
64.18978931662863
 23
105.8682004992975
 33
0.0
  0
SOLID
  5
593
330
4B6
100
AcDbEntity
  8
Dimensions(ISO)
  6
Continuous
 62
     7
100
AcDbTrace
 10
150.5897893166286
 20
106.7015338326308
 30
0.0
 11
150.5897893166286
 21
105.0348671659642
 31
0.0
 12
155.5897893166286
 22
105.8682004992975
 32
0.0
 13
155.5897893166286
 23
105.8682004992975
 33
0.0
  0
MTEXT
  5
594
330
4B6
100
AcDbEntity
  8
Dimensions(ISO)
  6
Continuous
 62
     7
370
    25
100
AcDbMText
 10
106.7912217859328
 20
112.4979303765144
 30
0.0
 40
5.0
 41
0.0
 71
     1
 72
     1
  1
\A1;91
  7
Current-BSI
 73
     1
 44
1.0
1001
ACAD
1000
MTEXTBEGIN
1070
    73
1070
     1
1070
    44
1040
1.0
1070
    74
1070
     0
1000
MTEXTEND
  0
POINT
  5
595
330
4B6
100
AcDbEntity
  8
Defpoints
  6
Continuous
 62
     0
100
AcDbPoint
 10
64.18978931662863
 20
157.1355746672365
 30
0.0
  0
POINT
  5
596
330
4B6
100
AcDbEntity
  8
Defpoints
  6
Continuous
 62
     0
100
AcDbPoint
 10
155.5897893166286
 20
157.1355746672365
 30
0.0
  0
POINT
  5
597
330
4B6
100
AcDbEntity
  8
Defpoints
  6
Continuous
 62
     0
100
AcDbPoint
 10
155.5897893166286
 20
105.8682004992975
 30
0.0
  0
ENDBLK
  5
4B8
330
4B6
100
AcDbEntity
  8
0
100
AcDbBlockEnd
  0
BLOCK
  5
59A
330
599
100
AcDbEntity
  8
0
100
AcDbBlockBegin
  2
*D8
 70
     1
 10
0.0
 20
0.0
 30
0.0
  3
*D8
  1

  0
LINE
  5
671
330
599
100
AcDbEntity
  8
Dimensions(ISO)
  6
Continuous
 62
     7
370
    25
100
AcDbLine
 10
93.68978931662864
 20
139.1355746672365
 30
0.0
 11
93.68978931662864
 21
120.4345114682515
 31
0.0
  0
LINE
  5
672
330
599
100
AcDbEntity
  8
Dimensions(ISO)
  6
Continuous
 62
     7
370
    25
100
AcDbLine
 10
126.0897893166286
 20
139.1355746672365
 30
0.0
 11
126.0897893166286
 21
120.4345114682515
 31
0.0
  0
LINE
  5
673
330
599
100
AcDbEntity
  8
Dimensions(ISO)
  6
Continuous
 62
     7
370
    25
100
AcDbLine
 10
98.68978931662866
 20
126.7845114682515
 30
0.0
 11
121.0897893166286
 21
126.7845114682515
 31
0.0
  0
SOLID
  5
674
330
599
100
AcDbEntity
  8
Dimensions(ISO)
  6
Continuous
 62
     7
100
AcDbTrace
 10
98.68978931662866
 20
127.6178448015848
 30
0.0
 11
98.68978931662866
 21
125.9511781349182
 31
0.0
 12
93.68978931662864
 22
126.7845114682515
 32
0.0
 13
93.68978931662864
 23
126.7845114682515
 33
0.0
  0
SOLID
  5
675
330
599
100
AcDbEntity
  8
Dimensions(ISO)
  6
Continuous
 62
     7
100
AcDbTrace
 10
121.0897893166286
 20
127.6178448015848
 30
0.0
 11
121.0897893166286
 21
125.9511781349182
 31
0.0
 12
126.0897893166286
 22
126.7845114682515
 32
0.0
 13
126.0897893166286
 23
126.7845114682515
 33
0.0
  0
MTEXT
  5
676
330
599
100
AcDbEntity
  8
Dimensions(ISO)
  6
Continuous
 62
     7
370
    25
100
AcDbMText
 10
106.33590118566
 20
133.417651986669
 30
0.0
 40
5.0
 41
0.0
 71
     1
 72
     1
  1
\A1;32
  7
Current-BSI
 73
     1
 44
1.0
1001
ACAD
1000
MTEXTBEGIN
1070
    73
1070
     1
1070
    44
1040
1.0
1070
    74
1070
     0
1000
MTEXTEND
  0
POINT
  5
677
330
599
100
AcDbEntity
  8
Defpoints
  6
Continuous
 62
     0
100
AcDbPoint
 10
93.68978931662864
 20
139.1355746672365
 30
0.0
  0
POINT
  5
678
330
599
100
AcDbEntity
  8
Defpoints
  6
Continuous
 62
     0
100
AcDbPoint
 10
126.0897893166286
 20
139.1355746672365
 30
0.0
  0
POINT
  5
679
330
599
100
AcDbEntity
  8
Defpoints
  6
Continuous
 62
     0
100
AcDbPoint
 10
126.0897893166286
 20
126.7845114682515
 30
0.0
  0
ENDBLK
  5
59B
330
599
100
AcDbEntity
  8
0
100
AcDbBlockEnd
  0
BLOCK
  5
67C
330
67B
100
AcDbEntity
  8
0
100
AcDbBlockBegin
  2
*D9
 70
     1
 10
0.0
 20
0.0
 30
0.0
  3
*D9
  1

  0
LINE
  5
753
330
67B
100
AcDbEntity
  8
Dimensions(ISO)
  6
Continuous
 62
     7
370
    25
100
AcDbLine
 10
277.4259653716715
 20
139.1355746672365
 30
0.0
 11
251.0759653716716
 21
139.1355746672365
 31
0.0
  0
LINE
  5
754
330
67B
100
AcDbEntity
  8
Dimensions(ISO)
  6
Continuous
 62
     7
370
    25
100
AcDbLine
 10
277.4259653716715
 20
272.3355746672365
 30
0.0
 11
251.0759653716716
 21
272.3355746672365
 31
0.0
  0
LINE
  5
755
330
67B
100
AcDbEntity
  8
Dimensions(ISO)
  6
Continuous
 62
     7
370
    25
100
AcDbLine
 10
257.4259653716715
 20
144.1355746672364
 30
0.0
 11
257.4259653716715
 21
267.3355746672365
 31
0.0
  0
SOLID
  5
756
330
67B
100
AcDbEntity
  8
Dimensions(ISO)
  6
Continuous
 62
     7
100
AcDbTrace
 10
256.5926320383383
 20
144.1355746672364
 30
0.0
 11
258.2592987050049
 21
144.1355746672364
 31
0.0
 12
257.4259653716715
 22
139.1355746672365
 32
0.0
 13
257.4259653716715
 23
139.1355746672365
 33
0.0
  0
SOLID
  5
757
330
67B
100
AcDbEntity
  8
Dimensions(ISO)
  6
Continuous
 62
     7
100
AcDbTrace
 10
256.5926320383383
 20
267.3355746672365
 30
0.0
 11
258.2592987050049
 21
267.3355746672365
 31
0.0
 12
257.4259653716715
 22
272.3355746672365
 32
0.0
 13
257.4259653716715
 23
272.3355746672365
 33
0.0
  0
MTEXT
  5
758
330
67B
100
AcDbEntity
  8
Dimensions(ISO)
  6
Continuous
 62
     7
370
    25
100
AcDbMText
 10
250.792824853254
 20
200.4473754857904
 30
0.0
 40
5.0
 41
0.0
 71
     1
 72
     1
  1
\A1;133
  7
Current-BSI
 11
0.0000000000000001
 21
1.0
 31
0.0
 73
     1
 44
1.0
1001
ACAD
1000
MTEXTBEGIN
1070
    73
1070
     1
1070
    44
1040
1.0
1070
    74
1070
     0
1000
MTEXTEND
  0
POINT
  5
759
330
67B
100
AcDbEntity
  8
Defpoints
  6
Continuous
 62
     0
100
AcDbPoint
 10
277.4259653716715
 20
139.1355746672365
 30
0.0
  0
POINT
  5
75A
330
67B
100
AcDbEntity
  8
Defpoints
  6
Continuous
 62
     0
100
AcDbPoint
 10
277.4259653716715
 20
272.3355746672365
 30
0.0
  0
POINT
  5
75B
330
67B
100
AcDbEntity
  8
Defpoints
  6
Continuous
 62
     0
100
AcDbPoint
 10
257.4259653716715
 20
272.3355746672365
 30
0.0
  0
ENDBLK
  5
67D
330
67B
100
AcDbEntity
  8
0
100
AcDbBlockEnd
  0
BLOCK
  5
75E
330
75D
100
AcDbEntity
  8
0
100
AcDbBlockBegin
  2
*D10
 70
     1
 10
0.0
 20
0.0
 30
0.0
  3
*D10
  1

  0
LINE
  5
835
330
75D
100
AcDbEntity
  8
Dimensions(ISO)
  6
Continuous
 62
     7
370
    25
100
AcDbLine
 10
277.4259653716768
 20
157.1355746672365
 30
0.0
 11
277.4259653716768
 21
106.7855746672365
 31
0.0
  0
LINE
  5
836
330
75D
100
AcDbEntity
  8
Dimensions(ISO)
  6
Continuous
 62
     7
370
    25
100
AcDbLine
 10
352.4259653716768
 20
157.1355746672365
 30
0.0
 11
352.4259653716768
 21
106.7855746672365
 31
0.0
  0
LINE
  5
837
330
75D
100
AcDbEntity
  8
Dimensions(ISO)
  6
Continuous
 62
     7
370
    25
100
AcDbLine
 10
282.4259653716769
 20
113.1355746672365
 30
0.0
 11
347.4259653716769
 21
113.1355746672365
 31
0.0
  0
SOLID
  5
838
330
75D
100
AcDbEntity
  8
Dimensions(ISO)
  6
Continuous
 62
     7
100
AcDbTrace
 10
282.4259653716769
 20
113.9689080005698
 30
0.0
 11
282.4259653716769
 21
112.3022413339032
 31
0.0
 12
277.4259653716768
 22
113.1355746672365
 32
0.0
 13
277.4259653716768
 23
113.1355746672365
 33
0.0
  0
SOLID
  5
839
330
75D
100
AcDbEntity
  8
Dimensions(ISO)
  6
Continuous
 62
     7
100
AcDbTrace
 10
347.4259653716769
 20
113.9689080005698
 30
0.0
 11
347.4259653716769
 21
112.3022413339032
 31
0.0
 12
352.4259653716768
 22
113.1355746672365
 32
0.0
 13
352.4259653716768
 23
113.1355746672365
 33
0.0
  0
MTEXT
  5
83A
330
75D
100
AcDbEntity
  8
Dimensions(ISO)
  6
Continuous
 62
     7
370
    25
100
AcDbMText
 10
311.3464974317042
 20
119.7448406972501
 30
0.0
 40
5.0
 41
0.0
 71
     1
 72
     1
  1
\A1;75
  7
Current-BSI
 73
     1
 44
1.0
1001
ACAD
1000
MTEXTBEGIN
1070
    73
1070
     1
1070
    44
1040
1.0
1070
    74
1070
     0
1000
MTEXTEND
  0
POINT
  5
83B
330
75D
100
AcDbEntity
  8
Defpoints
  6
Continuous
 62
     0
100
AcDbPoint
 10
277.4259653716768
 20
157.1355746672365
 30
0.0
  0
POINT
  5
83C
330
75D
100
AcDbEntity
  8
Defpoints
  6
Continuous
 62
     0
100
AcDbPoint
 10
352.4259653716768
 20
157.1355746672365
 30
0.0
  0
POINT
  5
83D
330
75D
100
AcDbEntity
  8
Defpoints
  6
Continuous
 62
     0
100
AcDbPoint
 10
352.4259653716768
 20
113.1355746672365
 30
0.0
  0
ENDBLK
  5
75F
330
75D
100
AcDbEntity
  8
0
100
AcDbBlockEnd
  0
BLOCK
  5
840
330
83F
100
AcDbEntity
  8
0
100
AcDbBlockBegin
  2
*D11
 70
     1
 10
0.0
 20
0.0
 30
0.0
  3
*D11
  1

  0
LINE
  5
919
330
83F
100
AcDbEntity
  8
Dimensions(ISO)
  6
Continuous
 62
     7
370
    25
100
AcDbLine
 10
99.38978931662862
 20
272.3355746672365
 30
0.0
 11
99.38978931662862
 21
287.4824613770846
 31
0.0
  0
LINE
  5
91A
330
83F
100
AcDbEntity
  8
Dimensions(ISO)
  6
Continuous
 62
     7
370
    25
100
AcDbLine
 10
120.3897893166286
 20
272.3355746672365
 30
0.0
 11
120.3897893166286
 21
287.4824613770846
 31
0.0
  0
LINE
  5
91B
330
83F
100
AcDbEntity
  8
Dimensions(ISO)
  6
Continuous
 62
     7
370
    25
100
AcDbLine
 10
104.3897893166286
 20
281.1324613770846
 30
0.0
 11
115.3897893166286
 21
281.1324613770846
 31
0.0
  0
SOLID
  5
91C
330
83F
100
AcDbEntity
  8
Dimensions(ISO)
  6
Continuous
 62
     7
100
AcDbTrace
 10
104.3897893166286
 20
281.9657947104179
 30
0.0
 11
104.3897893166286
 21
280.2991280437513
 31
0.0
 12
99.38978931662862
 22
281.1324613770846
 32
0.0
 13
99.38978931662862
 23
281.1324613770846
 33
0.0
  0
SOLID
  5
91D
330
83F
100
AcDbEntity
  8
Dimensions(ISO)
  6
Continuous
 62
     7
100
AcDbTrace
 10
115.3897893166286
 20
281.9657947104179
 30
0.0
 11
115.3897893166286
 21
280.2991280437513
 31
0.0
 12
120.3897893166286
 22
281.1324613770846
 32
0.0
 13
120.3897893166286
 23
281.1324613770846
 33
0.0
  0
MTEXT
  5
91E
330
83F
100
AcDbEntity
  8
Dimensions(ISO)
  6
Continuous
 62
     7
370
    25
100
AcDbMText
 10
103.9458753167756
 20
290.1794574349032
 30
0.0
 40
5.0
 41
0.0
 71
     1
 72
     1
  1
\A1;{\fAIGDT|b0|i0;\H5.0000;n}21
  7
Current-BSI
 73
     1
 44
1.0
1001
ACAD
1000
MTEXTBEGIN
1070
    73
1070
     1
1070
    44
1040
1.0
1070
    74
1070
     0
1000
MTEXTEND
  0
POINT
  5
91F
330
83F
100
AcDbEntity
  8
Defpoints
  6
Continuous
 62
     0
100
AcDbPoint
 10
99.38978931662862
 20
272.3355746672365
 30
0.0
  0
POINT
  5
920
330
83F
100
AcDbEntity
  8
Defpoints
  6
Continuous
 62
     0
100
AcDbPoint
 10
120.3897893166286
 20
272.3355746672365
 30
0.0
  0
POINT
  5
921
330
83F
100
AcDbEntity
  8
Defpoints
  6
Continuous
 62
     0
100
AcDbPoint
 10
120.3897893166286
 20
281.1324613770846
 30
0.0
  0
ENDBLK
  5
841
330
83F
100
AcDbEntity
  8
0
100
AcDbBlockEnd
  0
ENDSEC
  0
SECTION
  2
ENTITIES
  0
INSERT
  5
460
330
6C
100
AcDbEntity
  8
0
100
AcDbBlockReference
  2
Borders PCH WEB A4
 10
0.0
 20
0.0
 30
0.0
 41
2.0
 42
2.0
 43
2.0
  0
ELLIPSE
  5
461
330
6C
100
AcDbEntity
  8
Visible Edges(ISO)
100
AcDbEllipse
 10
72.66371168081346
 20
395.3449566162752
 30
0.0
 11
-6.400000000000002
 21
11.08512516844081
 31
0.0
210
0.0
220
0.0
230
1.0
 40
0.5773502691896257
 41
5.497787143782137
 42
7.068583470577032
  0
LINE
  5
462
330
6C
100
AcDbEntity
  8
Visible Tangent Edges(ISO)
100
AcDbLine
 10
261.2656891833857
 20
514.6855153329558
 30
0.0
 11
259.8182777007726
 21
513.8498519238409
 31
0.0
  0
LINE
  5
463
330
6C
100
AcDbEntity
  8
Visible Edges(ISO)
100
AcDbLine
 10
72.66371168081346
 20
405.79611285215
 30
0.0
 11
106.1805731090558
 21
386.445143884163
 31
0.0
  0
ELLIPSE
  5
464
330
6C
100
AcDbEntity
  8
Visible Edges(ISO)
100
AcDbEllipse
 10
106.1805731090558
 20
375.9939876482881
 30
0.0
 11
6.399999999999343
 21
-11.0851251684412
 31
0.0
210
0.0
220
0.0
230
1.0
 40
0.5773502691896258
 41
0.785398163397689
 42
2.356194490192587
  0
LINE
  5
465
330
6C
100
AcDbEntity
  8
Visible Edges(ISO)
100
AcDbLine
 10
115.2315399082436
 20
370.7684095303506
 30
0.0
 11
115.2315399082436
 21
307.3266251922663
 31
0.0
  0
ELLIPSE
  5
466
330
6C
100
AcDbEntity
  8
Visible Edges(ISO)
100
AcDbEllipse
 10
105.6855983622252
 20
312.8379771135284
 30
0.0
 11
6.750000000000002
 21
-11.69134295108992
 31
0.0
210
0.0
220
0.0
230
0.9999999999999998
 40
0.5773502691896258
 41
4.611436876654593
 42
7.068583470577029
  0
LINE
  5
467
330
6C
100
AcDbEntity
  8
Visible Edges(ISO)
100
AcDbLine
 10
111.8374273585482
 20
317.9607531632816
 30
0.0
 11
98.28969504068446
 21
310.138966262654
 31
0.0
  0
LINE
  5
468
330
6C
100
AcDbEntity
  8
Visible Edges(ISO)
100
AcDbLine
 10
98.28969504068446
 20
310.138966262654
 30
0.0
 11
100.9895574765429
 21
310.9605267981887
 31
0.0
  0
LINE
  5
469
330
6C
100
AcDbEntity
  8
Visible Edges(ISO)
100
AcDbLine
 10
111.8374273585482
 20
317.2235473946985
 30
0.0
 11
100.9895574765429
 21
310.9605267981887
 31
0.0
  0
ELLIPSE
  5
46A
330
6C
100
AcDbEntity
  8
Visible Edges(ISO)
100
AcDbEllipse
 10
105.6855983622252
 20
312.8379771135284
 30
0.0
 11
4.350000000000003
 21
-7.534421012924624
 31
0.0
210
0.0
220
0.0
230
1.0
 40
0.5773502691896257
 41
4.62929329646953
 42
7.068583470577033
  0
LINE
  5
46B
330
6C
100
AcDbEntity
  8
Visible Edges(ISO)
100
AcDbLine
 10
111.8374273585482
 20
309.2862169864929
 30
0.0
 11
111.8374273585482
 21
372.7280013245772
 31
0.0
  0
ELLIPSE
  5
46C
330
6C
100
AcDbEntity
  8
Visible Edges(ISO)
100
AcDbEllipse
 10
106.1805731090558
 20
375.9939876482881
 30
0.0
 11
-4.000000000000412
 21
6.928203230275268
 31
0.0
210
0.0
220
0.0
230
1.0
 40
0.5773502691896258
 41
3.926990816986997
 42
5.497787143781899
  0
LINE
  5
46D
330
6C
100
AcDbEntity
  8
Visible Edges(ISO)
100
AcDbLine
 10
106.1805731090558
 20
382.5259602957098
 30
0.0
 11
72.66371168081346
 21
401.8769292636969
 31
0.0
  0
ELLIPSE
  5
46E
330
6C
100
AcDbEntity
  8
Visible Edges(ISO)
100
AcDbEllipse
 10
72.66371168081346
 20
395.3449566162752
 30
0.0
 11
-3.999999999999997
 21
6.928203230275507
 31
0.0
210
0.0
220
0.0
230
1.0
 40
0.5773502691896258
 41
5.497787143782137
 42
7.068583470577028
  0
LINE
  5
46F
330
6C
100
AcDbEntity
  8
Visible Edges(ISO)
100
AcDbLine
 10
67.00685743132105
 20
398.610942939986
 30
0.0
 11
67.00685743132109
 21
335.1691586019017
 31
0.0
  0
ELLIPSE
  5
470
330
6C
100
AcDbEntity
  8
Visible Edges(ISO)
100
AcDbEllipse
 10
73.15868642764403
 20
331.6173984748662
 30
0.0
 11
4.350000000000449
 21
-7.534421012924359
 31
0.0
210
0.0
220
0.0
230
0.9999999999999998
 40
0.5773502691896258
 41
3.926990816987
 42
6.366280991094361
  0
LINE
  5
471
330
6C
100
AcDbEntity
  8
Visible Edges(ISO)
100
AcDbLine
 10
111.8374273585482
 20
343.9373482394773
 30
0.0
 11
77.85472731332635
 21
324.3174272205781
 31
0.0
  0
LINE
  5
472
330
6C
100
AcDbEntity
  8
Visible Edges(ISO)
100
AcDbLine
 10
77.85472731332635
 20
324.3174272205781
 30
0.0
 11
80.55458974918483
 21
320.3783340768076
 31
0.0
  0
LINE
  5
473
330
6C
100
AcDbEntity
  8
Visible Edges(ISO)
100
AcDbLine
 10
111.8374273585483
 20
338.4394887915889
 30
0.0
 11
80.55458974918483
 21
320.3783340768076
 31
0.0
  0
ELLIPSE
  5
474
330
6C
100
AcDbEntity
  8
Visible Edges(ISO)
100
AcDbEllipse
 10
73.15868642764403
 20
331.6173984748662
 30
0.0
 11
6.75
 21
-11.69134295108992
 31
0.0
210
0.0
220
0.0
230
1.0
 40
0.5773502691896258
 41
3.926990816987238
 42
6.38413741090968
  0
LINE
  5
475
330
6C
100
AcDbEntity
  8
Visible Edges(ISO)
100
AcDbLine
 10
63.61274488162564
 20
337.1287503961282
 30
0.0
 11
63.61274488162564
 21
400.5705347342126
 31
0.0
  0
LINE
  5
476
330
6C
100
AcDbEntity
  8
Visible Edges(ISO)
100
AcDbLine
 10
349.1064241554324
 20
569.7293979702611
 30
0.0
 11
288.9663087852548
 21
535.0074861721939
 31
0.0
  0
LINE
  5
477
330
6C
100
AcDbEntity
  8
Visible Edges(ISO)
100
AcDbLine
 10
230.2764459467714
 20
501.1228780636932
 30
0.0
 11
66.26371168081345
 21
406.430081784716
 31
0.0
  0
LINE
  5
478
330
6C
100
AcDbEntity
  8
Visible Edges(ISO)
100
AcDbLine
 10
395.2783108368442
 20
464.4459503479836
 30
0.0
 11
326.7625335001993
 21
424.8883478589353
 31
0.0
  0
LINE
  5
479
330
6C
100
AcDbEntity
  8
Visible Edges(ISO)
100
AcDbLine
 10
268.0378547141604
 20
390.9836387537414
 30
0.0
 11
112.4355983622252
 21
301.1466341624385
 31
0.0
  0
LINE
  5
47A
330
6C
100
AcDbEntity
  8
Visible Edges(ISO)
100
AcDbLine
 10
111.8374273585482
 20
338.3601226951196
 30
0.0
 11
79.90868642764404
 21
319.9260555237762
 31
0.0
  0
ELLIPSE
  5
47B
330
6C
100
AcDbEntity
  8
Visible Edges(ISO)
100
AcDbEllipse
 10
274.8608957611067
 20
528.4543117220176
 30
0.0
 11
-9.000000000000019
 21
15.58845726811993
 31
0.0
210
0.0
220
0.0
230
1.0
 40
0.5773502691896259
 41
5.497787143782137
 42
6.283185307179585
  0
LINE
  5
47C
330
6C
100
AcDbEntity
  8
Visible Edges(ISO)
100
AcDbLine
 10
314.0346114388415
 20
520.5342948870187
 30
0.0
 11
274.8608957611067
 21
543.1512501787167
 31
0.0
  0
ELLIPSE
  5
47D
330
6C
100
AcDbEntity
  8
Visible Edges(ISO)
100
AcDbEllipse
 10
314.0346114388415
 20
505.8373564303196
 30
0.0
 11
-9.000000000000932
 21
15.58845726811936
 31
0.0
210
0.0
220
0.0
230
0.9999999999999998
 40
0.5773502691896257
 41
3.926990816986997
 42
5.497787143781895
  0
LINE
  5
47E
330
6C
100
AcDbEntity
  8
Visible Edges(ISO)
100
AcDbLine
 10
326.7625335001993
 20
419.125419535795
 30
0.0
 11
326.7625335001993
 21
498.4888872019701
 31
0.0
  0
ELLIPSE
  5
47F
330
6C
100
AcDbEntity
  8
Visible Edges(ISO)
100
AcDbEllipse
 10
314.0346114388413
 20
426.4738887641447
 30
0.0
 11
9.000000000000083
 21
-15.58845726811998
 31
0.0
210
0.0
220
0.0
230
0.9999999999999998
 40
0.5773502691896257
 41
0.0
 42
0.785398163397435
  0
LINE
  5
480
330
6C
100
AcDbEntity
  8
Visible Edges(ISO)
100
AcDbLine
 10
256.0107605218221
 20
384.039792684226
 30
0.0
 11
261.0016028498504
 21
381.1583285226559
 31
0.0
  0
ELLIPSE
  5
481
330
6C
100
AcDbEntity
  8
Visible Edges(ISO)
100
AcDbEllipse
 10
261.0016028498504
 20
395.8552669793549
 30
0.0
 11
5.000000000000003
 21
-8.660254037844394
 31
0.0
210
0.0
220
0.0
230
1.0
 40
0.5773502691896258
 41
5.597062159130651
 42
7.068583470577031
  0
LINE
  5
482
330
6C
100
AcDbEntity
  8
Visible Edges(ISO)
100
AcDbLine
 10
268.0726706617158
 20
471.1362517408913
 30
0.0
 11
268.0726706617158
 21
391.7727840747163
 31
0.0
  0
ELLIPSE
  5
483
330
6C
100
AcDbEntity
  8
Visible Edges(ISO)
100
AcDbEllipse
 10
261.0016028498504
 20
475.2187346455299
 30
0.0
 11
4.999999999999482
 21
-8.660254037844685
 31
0.0
210
0.0
220
0.0
230
1.0
 40
0.5773502691896258
 41
0.7853981633976872
 42
2.356194490192587
  0
LINE
  5
484
330
6C
100
AcDbEntity
  8
Visible Edges(ISO)
100
AcDbLine
 10
221.8278871721157
 20
506.0006557465052
 30
0.0
 11
261.0016028498504
 21
483.3837004548071
 31
0.0
  0
ELLIPSE
  5
485
330
6C
100
AcDbEntity
  8
Visible Edges(ISO)
100
AcDbEllipse
 10
267.9312493054786
 20
510.001488993051
 30
0.0
 11
10.5
 21
-0.0000000000006284
 31
0.0
210
0.0
220
0.0
230
1.0
 40
0.5773502691896258
 41
0.5689503185420071
 42
2.57264233504852
  0
ELLIPSE
  5
486
330
6C
100
AcDbEntity
  8
Visible Edges(ISO)
100
AcDbEllipse
 10
221.8278871721157
 20
497.8356899372279
 30
0.0
 11
-4.999999999999994
 21
8.66025403784438
 31
0.0
210
0.0
220
0.0
230
1.0
 40
0.5773502691896258
 41
5.497787143782137
 42
7.068583470577038
  0
LINE
  5
487
330
6C
100
AcDbEntity
  8
Visible Edges(ISO)
100
AcDbLine
 10
214.7568193602502
 20
492.1626174762428
 30
0.0
 11
214.7568193602502
 21
501.9181728418665
 31
0.0
  0
LINE
  5
488
330
6C
100
AcDbEntity
  8
Visible Edges(ISO)
100
AcDbLine
 10
209.0999651107578
 20
505.1841591655775
 30
0.0
 11
209.0999651107578
 21
488.8966311525319
 31
0.0
  0
ELLIPSE
  5
489
330
6C
100
AcDbEntity
  8
Visible Edges(ISO)
100
AcDbEllipse
 10
221.8278871721157
 20
497.8356899372279
 30
0.0
 11
-8.999999999999996
 21
15.58845726811989
 31
0.0
210
0.0
220
0.0
230
1.0
 40
0.5773502691896258
 41
5.497787143782137
 42
7.068583470577032
  0
LINE
  5
48A
330
6C
100
AcDbEntity
  8
Visible Edges(ISO)
100
AcDbLine
 10
261.0016028498504
 20
489.915673102229
 30
0.0
 11
221.8278871721157
 21
512.5326283939269
 31
0.0
  0
ELLIPSE
  5
48B
330
6C
100
AcDbEntity
  8
Visible Edges(ISO)
100
AcDbEllipse
 10
267.9312493054786
 20
516.5334616404728
 30
0.0
 11
-10.5
 21
0.0000000000006273
 31
0.0
210
0.0
220
0.0
230
1.0
 40
0.5773502691896257
 41
0.0
 42
6.283185307179586
  0
ELLIPSE
  5
48C
330
6C
100
AcDbEntity
  8
Visible Edges(ISO)
100
AcDbEllipse
 10
261.0016028498504
 20
475.2187346455299
 30
0.0
 11
-9.000000000000932
 21
15.58845726811936
 31
0.0
210
0.0
220
0.0
230
0.9999999999999998
 40
0.5773502691896257
 41
3.926990816987
 42
5.497787143781895
  0
LINE
  5
48D
330
6C
100
AcDbEntity
  8
Visible Edges(ISO)
100
AcDbLine
 10
273.7295249112082
 20
388.5067977510055
 30
0.0
 11
273.7295249112082
 21
467.8702654171804
 31
0.0
  0
ELLIPSE
  5
48E
330
6C
100
AcDbEntity
  8
Visible Edges(ISO)
100
AcDbEllipse
 10
261.0016028498504
 20
395.8552669793549
 30
0.0
 11
9.000000000000001
 21
-15.5884572681199
 31
0.0
210
0.0
220
0.0
230
1.0
 40
0.5773502691896259
 41
5.497787143782137
 42
7.06858347057703
  0
LINE
  5
48F
330
6C
100
AcDbEntity
  8
Visible Edges(ISO)
100
AcDbLine
 10
265.8608957611067
 20
544.0427689901375
 30
0.0
 11
212.8278871721156
 21
513.4241472053478
 31
0.0
  0
LINE
  5
490
330
6C
100
AcDbEntity
  8
Visible Edges(ISO)
100
AcDbLine
 10
323.0346114388414
 20
410.8854314960247
 30
0.0
 11
270.0016028498504
 21
380.2668097112351
 31
0.0
  0
LINE
  5
491
330
6C
100
AcDbEntity
  8
Visible Edges(ISO)
100
AcDbLine
 10
126.0897893166286
 20
139.1355746672365
 30
0.0
 11
137.5897893166286
 21
139.1355746672365
 31
0.0
  0
LINE
  5
492
330
6C
100
AcDbEntity
  8
Visible Edges(ISO)
100
AcDbLine
 10
126.0897893166286
 20
147.1355746672364
 30
0.0
 11
126.0897893166286
 21
139.1355746672365
 31
0.0
  0
LINE
  5
493
330
6C
100
AcDbEntity
  8
Visible Edges(ISO)
100
AcDbLine
 10
137.5897893166286
 20
147.1355746672364
 30
0.0
 11
126.0897893166286
 21
147.1355746672364
 31
0.0
  0
ARC
  5
494
330
6C
100
AcDbEntity
  8
Visible Edges(ISO)
100
AcDbCircle
 10
137.5897893166286
 20
157.1355746672364
 30
0.0
 40
9.999999999999992
100
AcDbArc
 50
270.0
 51
0.0
  0
LINE
  5
495
330
6C
100
AcDbEntity
  8
Visible Edges(ISO)
100
AcDbLine
 10
147.5897893166286
 20
254.3355746672365
 30
0.0
 11
147.5897893166286
 21
157.1355746672365
 31
0.0
  0
ARC
  5
496
330
6C
100
AcDbEntity
  8
Visible Edges(ISO)
100
AcDbCircle
 10
137.5897893166286
 20
254.3355746672365
 30
0.0
 40
10.0
100
AcDbArc
 50
0.0
 51
90.0
  0
LINE
  5
497
330
6C
100
AcDbEntity
  8
Visible Edges(ISO)
100
AcDbLine
 10
82.18978931662864
 20
264.3355746672365
 30
0.0
 11
137.5897893166286
 21
264.3355746672365
 31
0.0
  0
ARC
  5
498
330
6C
100
AcDbEntity
  8
Visible Edges(ISO)
100
AcDbCircle
 10
82.18978931662862
 20
254.3355746672365
 30
0.0
 40
9.999999999999991
100
AcDbArc
 50
89.99999999999991
 51
180.0
  0
LINE
  5
499
330
6C
100
AcDbEntity
  8
Visible Edges(ISO)
100
AcDbLine
 10
72.18978931662862
 20
157.1355746672365
 30
0.0
 11
72.18978931662862
 21
254.3355746672365
 31
0.0
  0
ARC
  5
49A
330
6C
100
AcDbEntity
  8
Visible Edges(ISO)
100
AcDbCircle
 10
82.18978931662864
 20
157.1355746672365
 30
0.0
 40
10.0
100
AcDbArc
 50
180.0
 51
270.0
  0
LINE
  5
49B
330
6C
100
AcDbEntity
  8
Visible Edges(ISO)
100
AcDbLine
 10
93.68978931662864
 20
147.1355746672364
 30
0.0
 11
82.18978931662864
 21
147.1355746672364
 31
0.0
  0
LINE
  5
49C
330
6C
100
AcDbEntity
  8
Visible Edges(ISO)
100
AcDbLine
 10
93.68978931662864
 20
139.1355746672365
 30
0.0
 11
93.68978931662864
 21
147.1355746672364
 31
0.0
  0
LINE
  5
49D
330
6C
100
AcDbEntity
  8
Visible Edges(ISO)
100
AcDbLine
 10
82.18978931662864
 20
139.1355746672365
 30
0.0
 11
93.68978931662864
 21
139.1355746672365
 31
0.0
  0
ARC
  5
49E
330
6C
100
AcDbEntity
  8
Visible Edges(ISO)
100
AcDbCircle
 10
82.18978931662864
 20
157.1355746672365
 30
0.0
 40
18.00000000000001
100
AcDbArc
 50
180.0
 51
269.9999999999999
  0
LINE
  5
49F
330
6C
100
AcDbEntity
  8
Visible Edges(ISO)
100
AcDbLine
 10
64.18978931662862
 20
254.3355746672365
 30
0.0
 11
64.18978931662862
 21
157.1355746672365
 31
0.0
  0
ARC
  5
4A0
330
6C
100
AcDbEntity
  8
Visible Edges(ISO)
100
AcDbCircle
 10
82.18978931662864
 20
254.3355746672365
 30
0.0
 40
17.99999999999999
100
AcDbArc
 50
90.0
 51
180.0
  0
LINE
  5
4A1
330
6C
100
AcDbEntity
  8
Visible Edges(ISO)
100
AcDbLine
 10
137.5897893166286
 20
272.3355746672365
 30
0.0
 11
82.18978931662864
 21
272.3355746672365
 31
0.0
  0
ARC
  5
4A2
330
6C
100
AcDbEntity
  8
Visible Edges(ISO)
100
AcDbCircle
 10
137.5897893166286
 20
254.3355746672365
 30
0.0
 40
18.0
100
AcDbArc
 50
0.0
 51
90.0
  0
LINE
  5
4A3
330
6C
100
AcDbEntity
  8
Visible Edges(ISO)
100
AcDbLine
 10
155.5897893166286
 20
157.1355746672365
 30
0.0
 11
155.5897893166286
 21
254.3355746672365
 31
0.0
  0
ARC
  5
4A4
330
6C
100
AcDbEntity
  8
Visible Edges(ISO)
100
AcDbCircle
 10
137.5897893166286
 20
157.1355746672365
 30
0.0
 40
18.0
100
AcDbArc
 50
270.0000000000001
 51
0.0
  0
LINE
  5
4A5
330
6C
100
AcDbEntity
  8
Hidden Edges(ISO)
 48
7.615002155303955
100
AcDbLine
 10
120.3897893166286
 20
272.3355746672365
 30
0.0
 11
120.3897893166286
 21
264.3355746672365
 31
0.0
  0
LINE
  5
4A6
330
6C
100
AcDbEntity
  8
Hidden Edges(ISO)
 48
7.615002155303955
100
AcDbLine
 10
99.38978931662862
 20
272.3355746672365
 30
0.0
 11
99.38978931662862
 21
264.3355746672365
 31
0.0
  0
LINE
  5
4A7
330
6C
100
AcDbEntity
  8
Visible Edges(ISO)
100
AcDbLine
 10
352.4259653716715
 20
272.3355746672365
 30
0.0
 11
352.4259653716768
 21
254.3355746672365
 31
0.0
  0
LINE
  5
4A8
330
6C
100
AcDbEntity
  8
Visible Edges(ISO)
100
AcDbLine
 10
352.4259653716768
 20
157.1355746672365
 30
0.0
 11
352.4259653716768
 21
254.3355746672365
 31
0.0
  0
LINE
  5
4A9
330
6C
100
AcDbEntity
  8
Visible Edges(ISO)
100
AcDbLine
 10
352.4259653716768
 20
157.1355746672365
 30
0.0
 11
352.4259653716715
 21
139.1355746672365
 31
0.0
  0
LINE
  5
4AA
330
6C
100
AcDbEntity
  8
Visible Edges(ISO)
100
AcDbLine
 10
352.4259653716715
 20
139.1355746672365
 30
0.0
 11
277.4259653716715
 21
139.1355746672365
 31
0.0
  0
LINE
  5
4AB
330
6C
100
AcDbEntity
  8
Visible Edges(ISO)
100
AcDbLine
 10
352.4259653716715
 20
272.3355746672365
 30
0.0
 11
277.4259653716715
 21
272.3355746672365
 31
0.0
  0
LINE
  5
4AC
330
6C
100
AcDbEntity
  8
Visible Edges(ISO)
100
AcDbLine
 10
277.4259653716715
 20
272.3355746672365
 30
0.0
 11
277.4259653716768
 21
254.3355746672365
 31
0.0
  0
LINE
  5
4AD
330
6C
100
AcDbEntity
  8
Visible Edges(ISO)
100
AcDbLine
 10
277.4259653716768
 20
157.1355746672365
 30
0.0
 11
277.4259653716768
 21
254.3355746672365
 31
0.0
  0
LINE
  5
4AE
330
6C
100
AcDbEntity
  8
Visible Edges(ISO)
100
AcDbLine
 10
277.4259653716768
 20
157.1355746672365
 30
0.0
 11
277.4259653716715
 21
139.1355746672365
 31
0.0
  0
LINE
  5
4AF
330
6C
100
AcDbEntity
  8
Hidden Edges(ISO)
 48
25.90494537353516
100
AcDbLine
 10
352.4259653716715
 20
147.1355746672364
 30
0.0
 11
277.4259653716715
 21
147.1355746672364
 31
0.0
  0
LINE
  5
4B0
330
6C
100
AcDbEntity
  8
Hidden Edges(ISO)
 48
25.90494537353516
100
AcDbLine
 10
352.4259653716715
 20
264.3355746672365
 30
0.0
 11
277.4259653716715
 21
264.3355746672365
 31
0.0
  0
LINE
  5
4B1
330
6C
100
AcDbEntity
  8
Hidden Edges(ISO)
 48
7.615002155303955
100
AcDbLine
 10
325.4259653716633
 20
272.3355746672365
 30
0.0
 11
325.4259653716633
 21
264.3355746672365
 31
0.0
  0
LINE
  5
4B2
330
6C
100
AcDbEntity
  8
Hidden Edges(ISO)
 48
7.615002155303955
100
AcDbLine
 10
304.4259653716633
 20
272.3355746672365
 30
0.0
 11
304.4259653716633
 21
264.3355746672365
 31
0.0
  0
DIMENSION
  5
4B3
330
6C
100
AcDbEntity
  8
Dimensions(ISO)
  6
Continuous
 62
     7
370
    25
100
AcDbDimension
  2
*D7
 10
155.5897893166286
 20
105.8682004992975
 30
0.0
 11
109.8897893166286
 21
105.8682004992975
 31
0.0
 70
   160
  1
<>
 42
91.4
  3
DEFAULT-ISO
100
AcDbAlignedDimension
 13
64.18978931662863
 23
157.1355746672365
 33
0.0
 14
155.5897893166286
 24
157.1355746672365
 34
0.0
 50
180.0
100
AcDbRotatedDimension
1001
ACAD
1000
DSTYLE
1002
{
1070
   172
1070
     0
1070
   289
1070
     1
1070
   271
1070
     0
1070
   272
1070
     0
1070
    48
1040
0.0
1070
    47
1040
0.0
1002
}
  0
DIMENSION
  5
598
330
6C
100
AcDbEntity
  8
Dimensions(ISO)
  6
Continuous
 62
     7
370
    25
100
AcDbDimension
  2
*D8
 10
126.0897893166286
 20
126.7845114682515
 30
0.0
 11
109.8897893166286
 21
126.7845114682515
 31
0.0
 70
   160
  1
<>
 42
32.39999999999999
  3
DEFAULT-ISO
100
AcDbAlignedDimension
 13
93.68978931662864
 23
139.1355746672365
 33
0.0
 14
126.0897893166286
 24
139.1355746672365
 34
0.0
100
AcDbRotatedDimension
1001
ACAD
1000
DSTYLE
1002
{
1070
   172
1070
     0
1070
   289
1070
     1
1070
   271
1070
     0
1070
   272
1070
     0
1070
    48
1040
0.0
1070
    47
1040
0.0
1002
}
  0
DIMENSION
  5
67A
330
6C
100
AcDbEntity
  8
Dimensions(ISO)
  6
Continuous
 62
     7
370
    25
100
AcDbDimension
  2
*D9
 10
257.4259653716715
 20
272.3355746672365
 30
0.0
 11
257.4259653716715
 21
205.7355746672365
 31
0.0
 70
   160
  1
<>
 42
133.2
  3
DEFAULT-ISO
100
AcDbAlignedDimension
 13
277.4259653716715
 23
139.1355746672365
 33
0.0
 14
277.4259653716715
 24
272.3355746672365
 34
0.0
 50
90.0
100
AcDbRotatedDimension
1001
ACAD
1000
DSTYLE
1002
{
1070
   172
1070
     0
1070
   289
1070
     1
1070
   271
1070
     0
1070
   272
1070
     0
1070
    48
1040
0.0
1070
    47
1040
0.0
1002
}
  0
DIMENSION
  5
75C
330
6C
100
AcDbEntity
  8
Dimensions(ISO)
  6
Continuous
 62
     7
370
    25
100
AcDbDimension
  2
*D10
 10
352.4259653716768
 20
113.1355746672365
 30
0.0
 11
314.9259653716768
 21
113.1355746672365
 31
0.0
 70
   160
  1
<>
 42
75.0
  3
DEFAULT-ISO
100
AcDbAlignedDimension
 13
277.4259653716768
 23
157.1355746672365
 33
0.0
 14
352.4259653716768
 24
157.1355746672365
 34
0.0
100
AcDbRotatedDimension
1001
ACAD
1000
DSTYLE
1002
{
1070
   172
1070
     0
1070
   289
1070
     1
1070
   271
1070
     0
1070
   272
1070
     0
1070
    48
1040
0.0
1070
    47
1040
0.0
1002
}
  0
DIMENSION
  5
83E
330
6C
100
AcDbEntity
  8
Dimensions(ISO)
  6
Continuous
 62
     7
370
    25
100
AcDbDimension
  2
*D11
 10
120.3897893166286
 20
281.1324613770846
 30
0.0
 11
109.8897893166286
 21
281.1324613770846
 31
0.0
 70
   160
  1
{\fAIGDT|b0|i0;\H5.0000;n}<>
 42
21.00000000000003
  3
DEFAULT-ISO
100
AcDbAlignedDimension
 13
99.38978931662862
 23
272.3355746672365
 33
0.0
 14
120.3897893166286
 24
272.3355746672365
 34
0.0
 50
180.0
100
AcDbRotatedDimension
1001
ACAD
1000
DSTYLE
1002
{
1070
   172
1070
     0
1070
   289
1070
     1
1070
   271
1070
     0
1070
   272
1070
     0
1070
    48
1040
0.0
1070
    47
1040
0.0
1002
}
  0
MTEXT
  5
922
330
6C
100
AcDbEntity
  8
Symbols(ISO)
 62
     7
100
AcDbMText
 10
94.42933865057261
 20
28.08818425974572
 30
0.0
 40
5.0
 41
0.0
 71
     1
 72
     1
  1
{\fmonotxt|b0|i0;\H5.0000;A}
 73
     1
 44
1.0
1001
ACAD
1000
MTEXTBEGIN
1070
    73
1070
     1
1070
    44
1040
1.0
1070
    74
1070
     0
1000
MTEXTEND
  0
MTEXT
  5
924
330
6C
100
AcDbEntity
  8
Symbols(ISO)
 62
     7
100
AcDbMText
 10
94.30991716160665
 20
38.59076121709849
 30
0.0
 40
5.0
 41
10.07575750350952
 71
     1
 72
     1
  1
{\fmonotxt|b0|i0;\H5.0000;A4}
 73
     1
 44
1.0
1001
ACAD
1000
MTEXTBEGIN
1070
    73
1070
     1
1070
    44
1040
1.0
1070
    74
1070
     0
1000
MTEXTEND
  0
MTEXT
  5
925
330
6C
100
AcDbEntity
  8
Symbols(ISO)
 62
     7
100
AcDbMText
 10
94.60248909757821
 20
48.90419836451136
 30
0.0
 40
5.0
 41
37.72467054861606
 71
     1
 72
     1
  1
{\fmonotxt|b0|i0;\H5.0000;----}
 73
     1
 44
1.0
1001
ACAD
1000
MTEXTBEGIN
1070
    73
1070
     1
1070
    44
1040
1.0
1070
    74
1070
     0
1000
MTEXTEND
  0
MTEXT
  5
926
330
6C
100
AcDbEntity
  8
Symbols(ISO)
 62
     7
100
AcDbMText
 10
93.60798678106689
 20
60.34071948700573
 30
0.0
 40
5.0
 41
47.83895323048986
 71
     1
 72
     1
  1
{\fmonotxt|b0|i0;\H5.0000;241711}
 73
     1
 44
1.0
1001
ACAD
1000
MTEXTBEGIN
1070
    73
1070
     1
1070
    44
1040
1.0
1070
    74
1070
     0
1000
MTEXTEND
  0
MTEXT
  5
927
330
6C
100
AcDbEntity
  8
Symbols(ISO)
 62
     7
100
AcDbMText
 10
32.83208375951274
 20
78.94486644405374
 30
0.0
 40
6.99999988079071
 41
119.6564840747998
 71
     1
 72
     1
  1
{\fmonotxt|b0|i0;\H7.0000;4R/307SB BRACKET}
 73
     1
 44
1.0
1001
ACAD
1000
MTEXTBEGIN
1070
    73
1070
     1
1070
    44
1040
1.0
1070
    74
1070
     0
1000
MTEXTEND
  0
ENDSEC
  0
SECTION
  2
OBJECTS
  0
DICTIONARY
  5
C
330
0
100
AcDbDictionary
281
     1
  3
ACAD_CIP_PREVIOUS_PRODUCT_INFO
350
928
  3
ACAD_COLOR
350
63
  3
ACAD_GROUP
350
D
  3
ACAD_LAYOUT
350
62
  3
ACAD_MATERIAL
350
10
  3
ACAD_MLEADERSTYLE
350
66
  3
ACAD_MLINESTYLE
350
5F
  3
ACAD_PLOTSETTINGS
350
61
  3
ACAD_PLOTSTYLENAME
350
E
  3
ACAD_SCALELIST
350
42
  3
ACAD_TABLESTYLE
350
64
  3
ACAD_VISUALSTYLE
350
29
  3
ACDB_RECOMPOSE_DATA
350
93A
  3
AcDbVariableDictionary
350
929
  3
DWGPROPS
350
93B
  0
XRECORD
  5
928
102
{ACAD_REACTORS
330
C
102
}
330
C
100
AcDbXrecord
280
     1
300
INVNTOR
300
2012
300
PDSP_F_S
  0
DICTIONARY
  5
63
102
{ACAD_REACTORS
330
C
102
}
330
C
100
AcDbDictionary
281
     1
  0
DICTIONARY
  5
D
102
{ACAD_REACTORS
330
C
102
}
330
C
100
AcDbDictionary
281
     1
  0
DICTIONARY
  5
62
102
{ACAD_REACTORS
330
C
102
}
330
C
100
AcDbDictionary
281
     1
  3
Layout1
350
6B
  3
Layout2
350
73
  3
Model
350
6F
  0
DICTIONARY
  5
10
102
{ACAD_REACTORS
330
C
102
}
330
C
100
AcDbDictionary
281
     1
  3
ByBlock
350
19
  3
ByLayer
350
11
  3
Global
350
21
  0
DICTIONARY
  5
66
102
{ACAD_REACTORS
330
C
102
}
330
C
100
AcDbDictionary
281
     1
  3
Standard
350
67
  0
DICTIONARY
  5
5F
102
{ACAD_REACTORS
330
C
102
}
330
C
100
AcDbDictionary
281
     1
  3
Standard
350
60
  0
DICTIONARY
  5
61
102
{ACAD_REACTORS
330
C
102
}
330
C
100
AcDbDictionary
281
     1
  0
ACDBDICTIONARYWDFLT
  5
E
102
{ACAD_REACTORS
330
C
102
}
330
C
100
AcDbDictionary
281
     1
  3
Normal
350
F
100
AcDbDictionaryWithDefault
340
F
  0
DICTIONARY
  5
42
102
{ACAD_REACTORS
330
C
102
}
330
C
100
AcDbDictionary
281
     1
  3
A0
350
43
  3
A1
350
44
  3
A2
350
45
  3
A3
350
46
  3
A4
350
47
  3
A5
350
48
  3
A6
350
49
  3
A7
350
4A
  3
A8
350
4B
  3
A9
350
4C
  3
B0
350
4D
  3
B1
350
4E
  3
B2
350
4F
  3
B3
350
50
  3
B4
350
51
  3
B5
350
52
  3
B6
350
53
  0
DICTIONARY
  5
64
102
{ACAD_REACTORS
330
C
102
}
330
C
100
AcDbDictionary
281
     1
  3
Standard
350
65
  0
DICTIONARY
  5
29
102
{ACAD_REACTORS
330
C
102
}
330
C
100
AcDbDictionary
281
     1
  3
2dWireframe
350
2F
  3
Basic
350
2E
  3
Brighten
350
35
  3
ColorChange
350
39
  3
Conceptual
350
32
  3
Dim
350
34
  3
EdgeColorOff
350
41
  3
Facepattern
350
38
  3
Flat
350
2A
  3
FlatWithEdges
350
2B
  3
Gouraud
350
2C
  3
GouraudWithEdges
350
2D
  3
Hidden
350
31
  3
JitterOff
350
3F
  3
Linepattern
350
37
  3
OverhangOff
350
40
  3
Realistic
350
33
  3
Shaded
350
3E
  3
Shaded with edges
350
3D
  3
Shades of Gray
350
3A
  3
Sketchy
350
3B
  3
Thicken
350
36
  3
Wireframe
350
30
  3
X-Ray
350
3C
  0
XRECORD
  5
93A
102
{ACAD_REACTORS
330
C
102
}
330
C
100
AcDbXrecord
280
     1
 90
        1
330
65
  0
DICTIONARY
  5
929
102
{ACAD_REACTORS
330
C
102
}
330
C
100
AcDbDictionary
281
     1
  3
CANNOSCALE
350
92D
  3
CMLEADERSTYLE
350
92B
  3
CTABLESTYLE
350
92A
  3
DIMASSOC
350
934
  3
HIDETEXT
350
933
  3
INDEXCTL
350
932
  3
LAYEREVAL
350
92F
  3
LAYERNOTIFY
350
930
  3
LIGHTINGUNITS
350
92E
  3
MSLTSCALE
350
92C
  3
SORTENTS
350
931
  3
XCLIPFRAME
350
935
  0
XRECORD
  5
93B
102
{ACAD_REACTORS
330
C
102
}
330
C
100
AcDbXrecord
280
     1
  1
DWGPROPS COOKIE
  2

  3

  4
jamesr
  6

  7

  8

  9

300
Manager=
301
Company=
302
Category=
303
Part Number=4R 307SB - BRACKET LVL A
304
Description=
305
Project=
306
Designer=jamesr
307
Engineer=
308
Authority=
309
Cost Center=
 40
0.0000401388888889
 41
2455936.468669433
 42
2455936.468669433
  1

 90
       16
300
Vendor=
300
User Status=
300
Design Status=WorkInProgress
300
Checked by=
300
Engr Approved by=
300
Mfg Approved by=
  0
LAYOUT
  5
6B
102
{ACAD_XDICTIONARY
360
971
102
}
102
{ACAD_REACTORS
330
62
102
}
330
62
100
AcDbPlotSettings
  1

  2

  4

  6

 40
0.0
 41
0.0
 42
0.0
 43
0.0
 44
0.0
 45
0.0
 46
0.0
 47
0.0
 48
0.0
 49
0.0
140
0.0
141
0.0
142
1.0
143
1.0
 70
   688
 72
     0
 73
     0
 74
     5
  7

 75
    16
147
1.0
148
0.0
149
0.0
100
AcDbLayout
  1
Layout1
 70
     1
 71
     1
 10
0.0
 20
0.0
 11
12.0
 21
9.0
 12
0.0
 22
0.0
 32
0.0
 14
0.0
 24
0.0
 34
0.0
 15
0.0
 25
0.0
 35
0.0
146
0.0
 13
0.0
 23
0.0
 33
0.0
 16
1.0
 26
0.0
 36
0.0
 17
0.0
 27
1.0
 37
0.0
 76
     0
330
68
  0
LAYOUT
  5
73
102
{ACAD_XDICTIONARY
360
975
102
}
102
{ACAD_REACTORS
330
62
102
}
330
62
100
AcDbPlotSettings
  1

  2

  4

  6

 40
0.0
 41
0.0
 42
0.0
 43
0.0
 44
0.0
 45
0.0
 46
0.0
 47
0.0
 48
0.0
 49
0.0
140
0.0
141
0.0
142
1.0
143
1.0
 70
   688
 72
     0
 73
     0
 74
     5
  7

 75
    16
147
1.0
148
0.0
149
0.0
100
AcDbLayout
  1
Layout2
 70
     1
 71
     2
 10
0.0
 20
0.0
 11
12.0
 21
9.0
 12
0.0
 22
0.0
 32
0.0
 14
0.0
 24
0.0
 34
0.0
 15
0.0
 25
0.0
 35
0.0
146
0.0
 13
0.0
 23
0.0
 33
0.0
 16
1.0
 26
0.0
 36
0.0
 17
0.0
 27
1.0
 37
0.0
 76
     0
330
70
  0
LAYOUT
  5
6F
102
{ACAD_XDICTIONARY
360
973
102
}
102
{ACAD_REACTORS
330
62
102
}
330
62
100
AcDbPlotSettings
  1

  2

  4

  6

 40
0.0
 41
0.0
 42
0.0
 43
0.0
 44
0.0
 45
0.0
 46
0.0
 47
0.0
 48
0.0
 49
0.0
140
0.0
141
0.0
142
1.0
143
1.0
 70
  1712
 72
     0
 73
     0
 74
     0
  7

 75
     0
147
1.0
148
0.0
149
0.0
100
AcDbLayout
  1
Model
 70
     1
 71
     0
 10
0.0
 20
0.0
 11
12.0
 21
9.0
 12
0.0
 22
0.0
 32
0.0
 14
0.0
 24
0.0
 34
0.0
 15
0.0
 25
0.0
 35
0.0
146
0.0
 13
0.0
 23
0.0
 33
0.0
 16
1.0
 26
0.0
 36
0.0
 17
0.0
 27
1.0
 37
0.0
 76
     0
330
6C
  0
MATERIAL
  5
19
102
{ACAD_XDICTIONARY
360
1A
102
}
102
{ACAD_REACTORS
330
10
102
}
330
10
100
AcDbMaterial
  1
ByBlock
 72
     0
 43
0.0208333333333333
 43
0.0
 43
0.0
 43
0.0
 43
0.0
 43
0.0208333333333333
 43
0.0
 43
0.0
 43
0.0
 43
0.0
 43
1.0
 43
0.0
 43
0.0
 43
0.0
 43
0.0
 43
1.0
 77
     0
 47
0.0208333333333333
 47
0.0
 47
0.0
 47
0.0
 47
0.0
 47
0.0208333333333333
 47
0.0
 47
0.0
 47
0.0
 47
0.0
 47
1.0
 47
0.0
 47
0.0
 47
0.0
 47
0.0
 47
1.0
171
     0
 49
0.0208333333333333
 49
0.0
 49
0.0
 49
0.0
 49
0.0
 49
0.0208333333333333
 49
0.0
 49
0.0
 49
0.0
 49
0.0
 49
1.0
 49
0.0
 49
0.0
 49
0.0
 49
0.0
 49
1.0
175
     0
142
0.0208333333333333
142
0.0
142
0.0
142
0.0
142
0.0
142
0.0208333333333333
142
0.0
142
0.0
142
0.0
142
0.0
142
1.0
142
0.0
142
0.0
142
0.0
142
0.0
142
1.0
179
     0
144
0.0208333333333333
144
0.0
144
0.0
144
0.0
144
0.0
144
0.0208333333333333
144
0.0
144
0.0
144
0.0
144
0.0
144
1.0
144
0.0
144
0.0
144
0.0
144
0.0
144
1.0
147
0.0208333333333333
147
0.0
147
0.0
147
0.0
147
0.0
147
0.0208333333333333
147
0.0
147
0.0
147
0.0
147
0.0
147
1.0
147
0.0
147
0.0
147
0.0
147
0.0
147
1.0
  0
MATERIAL
  5
11
102
{ACAD_XDICTIONARY
360
12
102
}
102
{ACAD_REACTORS
330
10
102
}
330
10
100
AcDbMaterial
  1
ByLayer
 72
     0
 43
0.0208333333333333
 43
0.0
 43
0.0
 43
0.0
 43
0.0
 43
0.0208333333333333
 43
0.0
 43
0.0
 43
0.0
 43
0.0
 43
1.0
 43
0.0
 43
0.0
 43
0.0
 43
0.0
 43
1.0
 77
     0
 47
0.0208333333333333
 47
0.0
 47
0.0
 47
0.0
 47
0.0
 47
0.0208333333333333
 47
0.0
 47
0.0
 47
0.0
 47
0.0
 47
1.0
 47
0.0
 47
0.0
 47
0.0
 47
0.0
 47
1.0
171
     0
 49
0.0208333333333333
 49
0.0
 49
0.0
 49
0.0
 49
0.0
 49
0.0208333333333333
 49
0.0
 49
0.0
 49
0.0
 49
0.0
 49
1.0
 49
0.0
 49
0.0
 49
0.0
 49
0.0
 49
1.0
175
     0
142
0.0208333333333333
142
0.0
142
0.0
142
0.0
142
0.0
142
0.0208333333333333
142
0.0
142
0.0
142
0.0
142
0.0
142
1.0
142
0.0
142
0.0
142
0.0
142
0.0
142
1.0
179
     0
144
0.0208333333333333
144
0.0
144
0.0
144
0.0
144
0.0
144
0.0208333333333333
144
0.0
144
0.0
144
0.0
144
0.0
144
1.0
144
0.0
144
0.0
144
0.0
144
0.0
144
1.0
147
0.0208333333333333
147
0.0
147
0.0
147
0.0
147
0.0
147
0.0208333333333333
147
0.0
147
0.0
147
0.0
147
0.0
147
1.0
147
0.0
147
0.0
147
0.0
147
0.0
147
1.0
  0
MATERIAL
  5
21
102
{ACAD_XDICTIONARY
360
22
102
}
102
{ACAD_REACTORS
330
10
102
}
330
10
100
AcDbMaterial
  1
Global
 72
     0
 43
0.0208333333333333
 43
0.0
 43
0.0
 43
0.0
 43
0.0
 43
0.0208333333333333
 43
0.0
 43
0.0
 43
0.0
 43
0.0
 43
1.0
 43
0.0
 43
0.0
 43
0.0
 43
0.0
 43
1.0
 77
     0
 47
0.0208333333333333
 47
0.0
 47
0.0
 47
0.0
 47
0.0
 47
0.0208333333333333
 47
0.0
 47
0.0
 47
0.0
 47
0.0
 47
1.0
 47
0.0
 47
0.0
 47
0.0
 47
0.0
 47
1.0
171
     0
 49
0.0208333333333333
 49
0.0
 49
0.0
 49
0.0
 49
0.0
 49
0.0208333333333333
 49
0.0
 49
0.0
 49
0.0
 49
0.0
 49
1.0
 49
0.0
 49
0.0
 49
0.0
 49
0.0
 49
1.0
175
     0
142
0.0208333333333333
142
0.0
142
0.0
142
0.0
142
0.0
142
0.0208333333333333
142
0.0
142
0.0
142
0.0
142
0.0
142
1.0
142
0.0
142
0.0
142
0.0
142
0.0
142
1.0
179
     0
144
0.0208333333333333
144
0.0
144
0.0
144
0.0
144
0.0
144
0.0208333333333333
144
0.0
144
0.0
144
0.0
144
0.0
144
1.0
144
0.0
144
0.0
144
0.0
144
0.0
144
1.0
147
0.0208333333333333
147
0.0
147
0.0
147
0.0
147
0.0
147
0.0208333333333333
147
0.0
147
0.0
147
0.0
147
0.0
147
1.0
147
0.0
147
0.0
147
0.0
147
0.0
147
1.0
  0
MLEADERSTYLE
  5
67
102
{ACAD_XDICTIONARY
360
938
102
}
102
{ACAD_REACTORS
330
66
102
}
330
66
100
AcDbMLeaderStyle
170
     2
171
     1
172
     0
 90
        2
 40
0.0
 41
0.0
173
     1
 91
-1056964608
340
5B
 92
       -2
290
     1
 42
0.09
291
     1
 43
0.36
  3
Standard
 44
0.18
300

342
55
174
     1
178
     6
175
     1
176
     0
 93
-1056964608
 45
0.18
292
     0
297
     0
 46
0.18
 94
-1056964608
 47
1.0
 49
1.0
140
1.0
293
     1
141
0.0
294
     1
177
     0
142
1.0
295
     0
296
     0
143
0.125
1001
ACAD_MLEADERVER
1070
     2
  0
MLINESTYLE
  5
60
102
{ACAD_REACTORS
330
5F
102
}
330
5F
100
AcDbMlineStyle
  2
STANDARD
 70
     0
  3

 62
   256
 51
90.0
 52
90.0
 71
     2
 49
0.5
 62
   256
  6
BYLAYER
 49
-0.5
 62
   256
  6
BYLAYER
  0
ACDBPLACEHOLDER
  5
F
102
{ACAD_REACTORS
330
E
102
}
330
E
  0
SCALE
  5
43
102
{ACAD_REACTORS
330
42
102
}
330
42
100
AcDbScale
 70
     0
300
1:1
140
1.0
141
1.0
290
     1
  0
SCALE
  5
44
102
{ACAD_REACTORS
330
42
102
}
330
42
100
AcDbScale
 70
     0
300
1/128" = 1'-0"
140
0.0078125
141
12.0
290
     0
  0
SCALE
  5
45
102
{ACAD_REACTORS
330
42
102
}
330
42
100
AcDbScale
 70
     0
300
1/64" = 1'-0"
140
0.015625
141
12.0
290
     0
  0
SCALE
  5
46
102
{ACAD_REACTORS
330
42
102
}
330
42
100
AcDbScale
 70
     0
300
1/32" = 1'-0"
140
0.03125
141
12.0
290
     0
  0
SCALE
  5
47
102
{ACAD_REACTORS
330
42
102
}
330
42
100
AcDbScale
 70
     0
300
1/16" = 1'-0"
140
0.0625
141
12.0
290
     0
  0
SCALE
  5
48
102
{ACAD_REACTORS
330
42
102
}
330
42
100
AcDbScale
 70
     0
300
3/32" = 1'-0"
140
0.09375
141
12.0
290
     0
  0
SCALE
  5
49
102
{ACAD_REACTORS
330
42
102
}
330
42
100
AcDbScale
 70
     0
300
1/8" = 1'-0"
140
0.125
141
12.0
290
     0
  0
SCALE
  5
4A
102
{ACAD_REACTORS
330
42
102
}
330
42
100
AcDbScale
 70
     0
300
3/16" = 1'-0"
140
0.1875
141
12.0
290
     0
  0
SCALE
  5
4B
102
{ACAD_REACTORS
330
42
102
}
330
42
100
AcDbScale
 70
     0
300
1/4" = 1'-0"
140
0.25
141
12.0
290
     0
  0
SCALE
  5
4C
102
{ACAD_REACTORS
330
42
102
}
330
42
100
AcDbScale
 70
     0
300
3/8" = 1'-0"
140
0.375
141
12.0
290
     0
  0
SCALE
  5
4D
102
{ACAD_REACTORS
330
42
102
}
330
42
100
AcDbScale
 70
     0
300
1/2" = 1'-0"
140
0.5
141
12.0
290
     0
  0
SCALE
  5
4E
102
{ACAD_REACTORS
330
42
102
}
330
42
100
AcDbScale
 70
     0
300
3/4" = 1'-0"
140
0.75
141
12.0
290
     0
  0
SCALE
  5
4F
102
{ACAD_REACTORS
330
42
102
}
330
42
100
AcDbScale
 70
     0
300
1" = 1'-0"
140
1.0
141
12.0
290
     0
  0
SCALE
  5
50
102
{ACAD_REACTORS
330
42
102
}
330
42
100
AcDbScale
 70
     0
300
1-1/2" = 1'-0"
140
1.5
141
12.0
290
     0
  0
SCALE
  5
51
102
{ACAD_REACTORS
330
42
102
}
330
42
100
AcDbScale
 70
     0
300
3" = 1'-0"
140
3.0
141
12.0
290
     0
  0
SCALE
  5
52
102
{ACAD_REACTORS
330
42
102
}
330
42
100
AcDbScale
 70
     0
300
6" = 1'-0"
140
6.0
141
12.0
290
     0
  0
SCALE
  5
53
102
{ACAD_REACTORS
330
42
102
}
330
42
100
AcDbScale
 70
     0
300
1'-0" = 1'-0"
140
12.0
141
12.0
290
     0
  0
TABLESTYLE
  5
65
102
{ACAD_XDICTIONARY
360
936
102
}
102
{ACAD_REACTORS
330
64
102
}
330
64
100
AcDbTableStyle
  3
Standard
 70
     0
 71
     0
 40
0.06
 41
0.06
280
     0
281
     0
  7
Standard
140
0.18
170
     2
 62
     0
 63
     7
283
     0
274
    -2
284
     1
 64
     0
275
    -2
285
     1
 65
     0
276
    -2
286
     1
 66
     0
277
    -2
287
     1
 67
     0
278
    -2
288
     1
 68
     0
279
    -2
289
     1
 69
     0
  7
Standard
140
0.25
170
     5
 62
     0
 63
     7
283
     0
274
    -2
284
     1
 64
     0
275
    -2
285
     1
 65
     0
276
    -2
286
     1
 66
     0
277
    -2
287
     1
 67
     0
278
    -2
288
     1
 68
     0
279
    -2
289
     1
 69
     0
  7
Standard
140
0.18
170
     5
 62
     0
 63
     7
283
     0
274
    -2
284
     1
 64
     0
275
    -2
285
     1
 65
     0
276
    -2
286
     1
 66
     0
277
    -2
287
     1
 67
     0
278
    -2
288
     1
 68
     0
279
    -2
289
     1
 69
     0
  0
VISUALSTYLE
  5
2F
102
{ACAD_XDICTIONARY
360
949
102
}
102
{ACAD_REACTORS
330
29
102
}
330
29
100
AcDbVisualStyle
  2
2dWireframe
 70
     4
 71
     0
 72
     2
 73
     0
 90
        0
 40
-0.6
 41
-30.0
 62
     5
 63
     7
 74
     1
 91
        4
 64
     7
 65
   257
 75
     1
175
     1
 42
1.0
 92
        0
 66
   257
 43
1.0
 76
     1
 77
     6
 78
     2
 67
     7
 79
     5
170
     0
171
     0
290
     0
174
     0
 93
        1
 44
0.0
173
     0
291
     0
 45
0.0
1001
ACAD
1000
AcDbSavedByObjectVersion
1070
     0
  0
VISUALSTYLE
  5
2E
102
{ACAD_XDICTIONARY
360
947
102
}
102
{ACAD_REACTORS
330
29
102
}
330
29
100
AcDbVisualStyle
  2
Basic
 70
     7
 71
     1
 72
     0
 73
     1
 90
        0
 40
-0.6
 41
-30.0
 62
     5
 63
     7
 74
     0
 91
        4
 64
     7
 65
   257
 75
     1
175
     1
 42
1.0
 92
        8
 66
     7
 43
1.0
 76
     1
 77
     6
 78
     2
 67
     7
 79
     5
170
     0
171
     0
290
     0
174
     0
 93
        1
 44
0.0
173
     0
291
     1
 45
0.0
1001
ACAD
1000
AcDbSavedByObjectVersion
1070
     0
  0
VISUALSTYLE
  5
35
102
{ACAD_XDICTIONARY
360
955
102
}
102
{ACAD_REACTORS
330
29
102
}
330
29
100
AcDbVisualStyle
  2
Brighten
 70
    12
 71
     2
 72
     2
 73
     0
 90
        0
 40
-0.6
 41
-30.0
 62
     5
 63
     7
 74
     1
 91
        4
 64
     7
 65
   257
 75
     1
175
     1
 42
1.0
 92
        8
 66
     7
 43
1.0
 76
     1
 77
     6
 78
     2
 67
     7
 79
     5
170
     0
171
     0
290
     0
174
     0
 93
        1
 44
50.0
173
     0
291
     1
 45
0.0
1001
ACAD
1000
AcDbSavedByObjectVersion
1070
     0
  0
VISUALSTYLE
  5
39
102
{ACAD_XDICTIONARY
360
95D
102
}
102
{ACAD_REACTORS
330
29
102
}
330
29
100
AcDbVisualStyle
  2
ColorChange
 70
    16
 71
     2
 72
     2
 73
     3
 90
        0
 40
-0.6
 41
-30.0
 62
     5
 63
     8
 74
     1
 91
        4
 64
     7
 65
   257
 75
     1
175
     1
 42
1.0
 92
        8
 66
     8
 43
1.0
 76
     1
 77
     6
 78
     2
 67
     7
 79
     5
170
     0
171
     0
290
     0
174
     0
 93
        1
 44
0.0
173
     0
291
     1
 45
0.0
1001
ACAD
1000
AcDbSavedByObjectVersion
1070
     0
  0
VISUALSTYLE
  5
32
102
{ACAD_XDICTIONARY
360
94F
102
}
102
{ACAD_REACTORS
330
29
102
}
330
29
100
AcDbVisualStyle
  2
Conceptual
 70
     9
 71
     3
 72
     2
 73
     0
 90
        0
 40
-0.6
 41
-30.0
 62
     5
 63
     7
 74
     2
 91
        2
 64
     7
 65
   257
 75
     1
175
     1
 42
179.0
 92
        8
 66
     7
 43
1.0
 76
     1
 77
     6
 78
     2
 67
     7
 79
     3
170
     0
171
     0
290
     0
174
     0
 93
        1
 44
0.0
173
     0
291
     0
 45
0.0
1001
ACAD
1000
AcDbSavedByObjectVersion
1070
     0
  0
VISUALSTYLE
  5
34
102
{ACAD_XDICTIONARY
360
953
102
}
102
{ACAD_REACTORS
330
29
102
}
330
29
100
AcDbVisualStyle
  2
Dim
 70
    11
 71
     2
 72
     2
 73
     0
 90
        0
 40
-0.6
 41
-30.0
 62
     5
 63
     7
 74
     1
 91
        4
 64
     7
 65
   257
 75
     1
175
     1
 42
1.0
 92
        8
 66
     7
 43
1.0
 76
     1
 77
     6
 78
     2
 67
     7
 79
     5
170
     0
171
     0
290
     0
174
     0
 93
        1
 44
-50.0
173
     0
291
     1
 45
0.0
1001
ACAD
1000
AcDbSavedByObjectVersion
1070
     0
  0
VISUALSTYLE
  5
41
102
{ACAD_XDICTIONARY
360
96D
102
}
102
{ACAD_REACTORS
330
29
102
}
330
29
100
AcDbVisualStyle
  2
EdgeColorOff
 70
    22
 71
     2
 72
     2
 73
     0
 90
        0
 40
-0.6
 41
-30.0
 62
     5
 63
     7
 74
     1
 91
        4
 64
     7
 65
   257
 75
     1
175
     1
 42
1.0
 92
        8
 66
     7
 43
1.0
 76
     1
 77
     6
 78
     2
 67
     7
 79
     5
170
     0
171
     0
290
     0
174
     0
 93
        1
 44
0.0
173
     0
291
     1
 45
0.0
1001
ACAD
1000
AcDbSavedByObjectVersion
1070
     0
  0
VISUALSTYLE
  5
38
102
{ACAD_XDICTIONARY
360
95B
102
}
102
{ACAD_REACTORS
330
29
102
}
330
29
100
AcDbVisualStyle
  2
Facepattern
 70
    15
 71
     2
 72
     2
 73
     0
 90
        0
 40
-0.6
 41
-30.0
 62
     5
 63
     7
 74
     1
 91
        4
 64
     7
 65
   257
 75
     1
175
     1
 42
1.0
 92
        8
 66
     7
 43
1.0
 76
     1
 77
     6
 78
     2
 67
     7
 79
     5
170
     0
171
     0
290
     0
174
     0
 93
        1
 44
0.0
173
     0
291
     1
 45
0.0
1001
ACAD
1000
AcDbSavedByObjectVersion
1070
     0
  0
VISUALSTYLE
  5
2A
102
{ACAD_XDICTIONARY
360
93F
102
}
102
{ACAD_REACTORS
330
29
102
}
330
29
100
AcDbVisualStyle
  2
Flat
 70
     0
 71
     2
 72
     1
 73
     1
 90
        2
 40
-0.6
 41
30.0
 62
     5
 63
     7
 74
     0
 91
        0
 64
     7
 65
   257
 75
     1
175
     1
 42
1.0
 92
        8
 66
     7
 43
1.0
 76
     1
 77
     6
 78
     2
 67
     7
 79
     5
170
     0
171
     0
290
     0
174
     0
 93
       13
 44
0.0
173
     0
291
     1
 45
0.0
1001
ACAD
1000
AcDbSavedByObjectVersion
1070
     0
  0
VISUALSTYLE
  5
2B
102
{ACAD_XDICTIONARY
360
941
102
}
102
{ACAD_REACTORS
330
29
102
}
330
29
100
AcDbVisualStyle
  2
FlatWithEdges
 70
     1
 71
     2
 72
     1
 73
     1
 90
        2
 40
-0.6
 41
30.0
 62
     5
 63
     7
 74
     1
 91
        0
 64
     7
 65
   257
 75
     1
175
     1
 42
1.0
 92
        0
 66
   257
 43
1.0
 76
     1
 77
     6
 78
     2
 67
     7
 79
     5
170
     0
171
     0
290
     0
174
     0
 93
       13
 44
0.0
173
     0
291
     1
 45
0.0
1001
ACAD
1000
AcDbSavedByObjectVersion
1070
     0
  0
VISUALSTYLE
  5
2C
102
{ACAD_XDICTIONARY
360
943
102
}
102
{ACAD_REACTORS
330
29
102
}
330
29
100
AcDbVisualStyle
  2
Gouraud
 70
     2
 71
     2
 72
     2
 73
     1
 90
        2
 40
-0.6
 41
30.0
 62
     5
 63
     7
 74
     0
 91
        0
 64
     7
 65
   257
 75
     1
175
     1
 42
1.0
 92
        0
 66
     7
 43
1.0
 76
     1
 77
     6
 78
     2
 67
     7
 79
     5
170
     0
171
     0
290
     0
174
     0
 93
       13
 44
0.0
173
     0
291
     1
 45
0.0
1001
ACAD
1000
AcDbSavedByObjectVersion
1070
     0
  0
VISUALSTYLE
  5
2D
102
{ACAD_XDICTIONARY
360
945
102
}
102
{ACAD_REACTORS
330
29
102
}
330
29
100
AcDbVisualStyle
  2
GouraudWithEdges
 70
     3
 71
     2
 72
     2
 73
     1
 90
        2
 40
-0.6
 41
30.0
 62
     5
 63
     7
 74
     1
 91
        0
 64
     7
 65
   257
 75
     1
175
     1
 42
1.0
 92
        0
 66
   257
 43
1.0
 76
     1
 77
     6
 78
     2
 67
     7
 79
     5
170
     0
171
     0
290
     0
174
     0
 93
       13
 44
0.0
173
     0
291
     1
 45
0.0
1001
ACAD
1000
AcDbSavedByObjectVersion
1070
     0
  0
VISUALSTYLE
  5
31
102
{ACAD_XDICTIONARY
360
94D
102
}
102
{ACAD_REACTORS
330
29
102
}
330
29
100
AcDbVisualStyle
  2
Hidden
 70
     6
 71
     1
 72
     2
 73
     2
 90
        0
 40
-0.6
 41
-30.0
 62
     5
 63
     7
 74
     2
 91
        2
 64
     7
 65
   257
 75
     2
175
     1
 42
40.0
 92
        0
 66
   257
 43
1.0
 76
     1
 77
     6
 78
     2
 67
     7
 79
     3
170
     0
171
     0
290
     0
174
     0
 93
        1
 44
0.0
173
     0
291
     0
 45
0.0
1001
ACAD
1000
AcDbSavedByObjectVersion
1070
     0
  0
VISUALSTYLE
  5
3F
102
{ACAD_XDICTIONARY
360
969
102
}
102
{ACAD_REACTORS
330
29
102
}
330
29
100
AcDbVisualStyle
  2
JitterOff
 70
    20
 71
     2
 72
     2
 73
     0
 90
        0
 40
-0.6
 41
-30.0
 62
     5
 63
     7
 74
     1
 91
        4
 64
     7
 65
   257
 75
     1
175
     1
 42
1.0
 92
       10
 66
     7
 43
1.0
 76
     1
 77
     6
 78
     2
 67
     7
 79
     5
170
     0
171
     0
290
     0
174
     0
 93
        1
 44
0.0
173
     0
291
     1
 45
0.0
1001
ACAD
1000
AcDbSavedByObjectVersion
1070
     0
  0
VISUALSTYLE
  5
37
102
{ACAD_XDICTIONARY
360
959
102
}
102
{ACAD_REACTORS
330
29
102
}
330
29
100
AcDbVisualStyle
  2
Linepattern
 70
    14
 71
     2
 72
     2
 73
     0
 90
        0
 40
-0.6
 41
-30.0
 62
     5
 63
     7
 74
     1
 91
        4
 64
     7
 65
   257
 75
     7
175
     7
 42
1.0
 92
        8
 66
     7
 43
1.0
 76
     1
 77
     6
 78
     2
 67
     7
 79
     5
170
     0
171
     0
290
     0
174
     0
 93
        1
 44
0.0
173
     0
291
     1
 45
0.0
1001
ACAD
1000
AcDbSavedByObjectVersion
1070
     0
  0
VISUALSTYLE
  5
40
102
{ACAD_XDICTIONARY
360
96B
102
}
102
{ACAD_REACTORS
330
29
102
}
330
29
100
AcDbVisualStyle
  2
OverhangOff
 70
    21
 71
     2
 72
     2
 73
     0
 90
        0
 40
-0.6
 41
-30.0
 62
     5
 63
     7
 74
     1
 91
        4
 64
     7
 65
   257
 75
     1
175
     1
 42
1.0
 92
        9
 66
     7
 43
1.0
 76
     1
 77
     6
 78
     2
 67
     7
 79
     5
170
     0
171
     0
290
     0
174
     0
 93
        1
 44
0.0
173
     0
291
     1
 45
0.0
1001
ACAD
1000
AcDbSavedByObjectVersion
1070
     0
  0
VISUALSTYLE
  5
33
102
{ACAD_XDICTIONARY
360
951
102
}
102
{ACAD_REACTORS
330
29
102
}
330
29
100
AcDbVisualStyle
  2
Realistic
 70
     8
 71
     2
 72
     3
 73
     0
 90
        2
 40
-0.6
 41
30.0
 62
     5
 63
     7
 74
     0
 91
        0
 64
     7
 65
   257
 75
     1
175
     1
 42
1.0
 92
        8
 66
   257
 43
1.0
 76
     1
 77
     6
 78
     2
 67
     7
 79
     3
170
     0
171
     0
290
     0
174
     0
 93
       13
 44
0.0
173
     0
291
     0
 45
0.0
1001
ACAD
1000
AcDbSavedByObjectVersion
1070
     0
  0
VISUALSTYLE
  5
3E
102
{ACAD_XDICTIONARY
360
967
102
}
102
{ACAD_REACTORS
330
29
102
}
330
29
100
AcDbVisualStyle
  2
Shaded
 70
    27
 71
     2
 72
     2
 73
     1
 90
        2
 40
-0.6
 41
30.0
 62
     5
 63
     7
 74
     0
 91
        4
 64
     7
 65
   257
 75
     1
175
     1
 42
1.0
 92
        8
 66
   257
 43
1.0
 76
     1
 77
     6
 78
     2
 67
     8
 79
     3
170
     0
171
     0
290
     0
174
     0
 93
        5
 44
0.0
173
     0
291
     0
 45
0.0
1001
ACAD
1000
AcDbSavedByObjectVersion
1070
     0
  0
VISUALSTYLE
  5
3D
102
{ACAD_XDICTIONARY
360
965
102
}
102
{ACAD_REACTORS
330
29
102
}
330
29
100
AcDbVisualStyle
  2
Shaded with edges
 70
    26
 71
     2
 72
     2
 73
     1
 90
        2
 40
-0.6
 41
30.0
 62
     5
 63
     7
 74
     1
 91
       10
 64
     7
 65
   257
 75
     2
175
     1
 42
1.0
 92
        8
 66
   257
 43
1.0
 76
     1
 77
     6
 78
     2
 67
     7
 79
     3
170
     0
171
     0
290
     0
174
     0
 93
        5
 44
0.0
173
     0
291
     0
 45
0.0
1001
ACAD
1000
AcDbSavedByObjectVersion
1070
     0
  0
VISUALSTYLE
  5
3A
102
{ACAD_XDICTIONARY
360
95F
102
}
102
{ACAD_REACTORS
330
29
102
}
330
29
100
AcDbVisualStyle
  2
Shades of Gray
 70
    23
 71
     2
 72
     2
 73
     3
 90
        0
 40
-0.6
 41
-30.0
 62
     5
 63
     7
 74
     2
 91
        2
 64
     7
 65
     7
 75
     1
175
     1
 42
40.0
 92
        8
 66
     7
 43
1.0
 76
     1
 77
     6
 78
     2
 67
     7
 79
     3
170
     0
171
     0
290
     0
174
     0
 93
        1
 44
0.0
173
     0
291
     0
 45
0.0
1001
ACAD
1000
AcDbSavedByObjectVersion
1070
     0
  0
VISUALSTYLE
  5
3B
102
{ACAD_XDICTIONARY
360
961
102
}
102
{ACAD_REACTORS
330
29
102
}
330
29
100
AcDbVisualStyle
  2
Sketchy
 70
    24
 71
     1
 72
     2
 73
     2
 90
        0
 40
-0.6
 41
-30.0
 62
     5
 63
     7
 74
     2
 91
        2
 64
     7
 65
     7
 75
     1
175
     1
 42
40.0
 92
       11
 66
     7
 43
1.0
 76
     1
 77
     6
 78
     2
 67
     7
 79
     6
170
     0
171
     0
290
     0
174
     0
 93
        1
 44
0.0
173
     0
291
     0
 45
0.0
1001
ACAD
1000
AcDbSavedByObjectVersion
1070
     0
  0
VISUALSTYLE
  5
36
102
{ACAD_XDICTIONARY
360
957
102
}
102
{ACAD_REACTORS
330
29
102
}
330
29
100
AcDbVisualStyle
  2
Thicken
 70
    13
 71
     2
 72
     2
 73
     0
 90
        0
 40
-0.6
 41
-30.0
 62
     5
 63
     7
 74
     1
 91
        4
 64
     7
 65
   257
 75
     1
175
     1
 42
1.0
 92
       12
 66
     7
 43
1.0
 76
     1
 77
     6
 78
     2
 67
     7
 79
     5
170
     0
171
     0
290
     0
174
     0
 93
        1
 44
0.0
173
     0
291
     1
 45
0.0
1001
ACAD
1000
AcDbSavedByObjectVersion
1070
     0
  0
VISUALSTYLE
  5
30
102
{ACAD_XDICTIONARY
360
94B
102
}
102
{ACAD_REACTORS
330
29
102
}
330
29
100
AcDbVisualStyle
  2
Wireframe
 70
     5
 71
     0
 72
     2
 73
     0
 90
        0
 40
-0.6
 41
-30.0
 62
     5
 63
     7
 74
     1
 91
        4
 64
     7
 65
   257
 75
     1
175
     1
 42
1.0
 92
        0
 66
   257
 43
1.0
 76
     1
 77
     6
 78
     2
 67
     7
 79
     3
170
     0
171
     0
290
     0
174
     0
 93
        1
 44
0.0
173
     0
291
     0
 45
0.0
1001
ACAD
1000
AcDbSavedByObjectVersion
1070
     0
  0
VISUALSTYLE
  5
3C
102
{ACAD_XDICTIONARY
360
963
102
}
102
{ACAD_REACTORS
330
29
102
}
330
29
100
AcDbVisualStyle
  2
X-Ray
 70
    25
 71
     2
 72
     2
 73
     1
 90
        1
 40
0.5
 41
-30.0
 62
     5
 63
     7
 74
     1
 91
        0
 64
     7
 65
   257
 75
     1
175
     1
 42
1.0
 92
        8
 66
     7
 43
1.0
 76
     1
 77
     6
 78
     2
 67
     7
 79
     3
170
     0
171
     0
290
     0
174
     0
 93
       13
 44
0.0
173
     0
291
     0
 45
0.0
1001
ACAD
1000
AcDbSavedByObjectVersion
1070
     0
  0
DICTIONARYVAR
  5
92D
102
{ACAD_REACTORS
330
929
102
}
330
929
100
DictionaryVariables
280
     0
  1
1:1
  0
DICTIONARYVAR
  5
92B
102
{ACAD_REACTORS
330
929
102
}
330
929
100
DictionaryVariables
280
     0
  1
STANDARD
  0
DICTIONARYVAR
  5
92A
102
{ACAD_REACTORS
330
929
102
}
330
929
100
DictionaryVariables
280
     0
  1
STANDARD
  0
DICTIONARYVAR
  5
934
102
{ACAD_REACTORS
330
929
102
}
330
929
100
DictionaryVariables
280
     0
  1
1
  0
DICTIONARYVAR
  5
933
102
{ACAD_REACTORS
330
929
102
}
330
929
100
DictionaryVariables
280
     0
  1
1
  0
DICTIONARYVAR
  5
932
102
{ACAD_REACTORS
330
929
102
}
330
929
100
DictionaryVariables
280
     0
  1
0
  0
DICTIONARYVAR
  5
92F
102
{ACAD_REACTORS
330
929
102
}
330
929
100
DictionaryVariables
280
     0
  1
0
  0
DICTIONARYVAR
  5
930
102
{ACAD_REACTORS
330
929
102
}
330
929
100
DictionaryVariables
280
     0
  1
0
  0
DICTIONARYVAR
  5
92E
102
{ACAD_REACTORS
330
929
102
}
330
929
100
DictionaryVariables
280
     0
  1
2
  0
DICTIONARYVAR
  5
92C
102
{ACAD_REACTORS
330
929
102
}
330
929
100
DictionaryVariables
280
     0
  1
1
  0
DICTIONARYVAR
  5
931
102
{ACAD_REACTORS
330
929
102
}
330
929
100
DictionaryVariables
280
     0
  1
127
  0
DICTIONARYVAR
  5
935
102
{ACAD_REACTORS
330
929
102
}
330
929
100
DictionaryVariables
280
     0
  1
2
  0
DICTIONARY
  5
971
330
6B
100
AcDbDictionary
280
     1
281
     1
  3
ACAD_XREC_ROUNDTRIP
360
972
  0
DICTIONARY
  5
975
330
73
100
AcDbDictionary
280
     1
281
     1
  3
ACAD_XREC_ROUNDTRIP
360
976
  0
DICTIONARY
  5
973
330
6F
100
AcDbDictionary
280
     1
281
     1
  3
ACAD_XREC_ROUNDTRIP
360
974
  0
DICTIONARY
  5
1A
330
19
100
AcDbDictionary
280
     1
281
     1
  3
ACAD_XREC_ROUNDTRIP
360
93D
  3
BUMPTILE
360
1C
  3
DIFFUSETILE
360
1B
  3
OPACITYTILE
360
1F
  3
REFLECTIONTILE
360
1E
  3
REFRACTIONTILE
360
20
  3
SPECULARTILE
360
1D
  0
DICTIONARY
  5
12
330
11
100
AcDbDictionary
280
     1
281
     1
  3
ACAD_XREC_ROUNDTRIP
360
93C
  3
BUMPTILE
360
14
  3
DIFFUSETILE
360
13
  3
FBXASSET
360
1B3
  3
OPACITYTILE
360
17
  3
REFLECTIONTILE
360
16
  3
REFRACTIONTILE
360
18
  3
SPECULARTILE
360
15
  0
DICTIONARY
  5
22
330
21
100
AcDbDictionary
280
     1
281
     1
  3
ACAD_XREC_ROUNDTRIP
360
93E
  3
BUMPTILE
360
24
  3
DIFFUSETILE
360
23
  3
OPACITYTILE
360
27
  3
REFLECTIONTILE
360
26
  3
REFRACTIONTILE
360
28
  3
SPECULARTILE
360
25
  0
DICTIONARY
  5
938
330
67
100
AcDbDictionary
280
     1
281
     1
  3
ACAD_XREC_ROUNDTRIP
360
939
  0
DICTIONARY
  5
936
330
65
100
AcDbDictionary
280
     1
281
     1
  3
ACAD_ROUNDTRIP_2008_TABLESTYLE_CELLSTYLEMAP
360
937
  3
ACAD_XREC_ROUNDTRIP
360
96F
  0
DICTIONARY
  5
949
330
2F
100
AcDbDictionary
280
     1
281
     1
  3
ACAD_XREC_ROUNDTRIP
360
94A
  0
DICTIONARY
  5
947
330
2E
100
AcDbDictionary
280
     1
281
     1
  3
ACAD_XREC_ROUNDTRIP
360
948
  0
DICTIONARY
  5
955
330
35
100
AcDbDictionary
280
     1
281
     1
  3
ACAD_XREC_ROUNDTRIP
360
956
  0
DICTIONARY
  5
95D
330
39
100
AcDbDictionary
280
     1
281
     1
  3
ACAD_XREC_ROUNDTRIP
360
95E
  0
DICTIONARY
  5
94F
330
32
100
AcDbDictionary
280
     1
281
     1
  3
ACAD_XREC_ROUNDTRIP
360
950
  0
DICTIONARY
  5
953
330
34
100
AcDbDictionary
280
     1
281
     1
  3
ACAD_XREC_ROUNDTRIP
360
954
  0
DICTIONARY
  5
96D
330
41
100
AcDbDictionary
280
     1
281
     1
  3
ACAD_XREC_ROUNDTRIP
360
96E
  0
DICTIONARY
  5
95B
330
38
100
AcDbDictionary
280
     1
281
     1
  3
ACAD_XREC_ROUNDTRIP
360
95C
  0
DICTIONARY
  5
93F
330
2A
100
AcDbDictionary
280
     1
281
     1
  3
ACAD_XREC_ROUNDTRIP
360
940
  0
DICTIONARY
  5
941
330
2B
100
AcDbDictionary
280
     1
281
     1
  3
ACAD_XREC_ROUNDTRIP
360
942
  0
DICTIONARY
  5
943
330
2C
100
AcDbDictionary
280
     1
281
     1
  3
ACAD_XREC_ROUNDTRIP
360
944
  0
DICTIONARY
  5
945
330
2D
100
AcDbDictionary
280
     1
281
     1
  3
ACAD_XREC_ROUNDTRIP
360
946
  0
DICTIONARY
  5
94D
330
31
100
AcDbDictionary
280
     1
281
     1
  3
ACAD_XREC_ROUNDTRIP
360
94E
  0
DICTIONARY
  5
969
330
3F
100
AcDbDictionary
280
     1
281
     1
  3
ACAD_XREC_ROUNDTRIP
360
96A
  0
DICTIONARY
  5
959
330
37
100
AcDbDictionary
280
     1
281
     1
  3
ACAD_XREC_ROUNDTRIP
360
95A
  0
DICTIONARY
  5
96B
330
40
100
AcDbDictionary
280
     1
281
     1
  3
ACAD_XREC_ROUNDTRIP
360
96C
  0
DICTIONARY
  5
951
330
33
100
AcDbDictionary
280
     1
281
     1
  3
ACAD_XREC_ROUNDTRIP
360
952
  0
DICTIONARY
  5
967
330
3E
100
AcDbDictionary
280
     1
281
     1
  3
ACAD_XREC_ROUNDTRIP
360
968
  0
DICTIONARY
  5
965
330
3D
100
AcDbDictionary
280
     1
281
     1
  3
ACAD_XREC_ROUNDTRIP
360
966
  0
DICTIONARY
  5
95F
330
3A
100
AcDbDictionary
280
     1
281
     1
  3
ACAD_XREC_ROUNDTRIP
360
960
  0
DICTIONARY
  5
961
330
3B
100
AcDbDictionary
280
     1
281
     1
  3
ACAD_XREC_ROUNDTRIP
360
962
  0
DICTIONARY
  5
957
330
36
100
AcDbDictionary
280
     1
281
     1
  3
ACAD_XREC_ROUNDTRIP
360
958
  0
DICTIONARY
  5
94B
330
30
100
AcDbDictionary
280
     1
281
     1
  3
ACAD_XREC_ROUNDTRIP
360
94C
  0
DICTIONARY
  5
963
330
3C
100
AcDbDictionary
280
     1
281
     1
  3
ACAD_XREC_ROUNDTRIP
360
964
  0
XRECORD
  5
972
102
{ACAD_REACTORS
330
971
102
}
330
971
100
AcDbXrecord
280
     1
102
SHADEPLOT
 70
     0
102
SHADEPLOTRESLEVEL
 70
     2
102
SHADEPLOTCUSTOMDPI
 70
   300
  0
XRECORD
  5
976
102
{ACAD_REACTORS
330
975
102
}
330
975
100
AcDbXrecord
280
     1
102
SHADEPLOT
 70
     0
102
SHADEPLOTRESLEVEL
 70
     2
102
SHADEPLOTCUSTOMDPI
 70
   300
  0
XRECORD
  5
974
102
{ACAD_REACTORS
330
973
102
}
330
973
100
AcDbXrecord
280
     1
102
SHADEPLOT
 70
     0
102
SHADEPLOTRESLEVEL
 70
     2
102
SHADEPLOTCUSTOMDPI
 70
   300
  0
XRECORD
  5
93D
102
{ACAD_REACTORS
330
1A
102
}
330
1A
100
AcDbXrecord
280
     1
102
MATERIAL
148
0.0
149
0.0
149
0.0
 93
        0
 94
      127
282
     0
 72
     0
 77
     0
171
     0
175
     0
179
     0
273
     0
  0
XRECORD
  5
1C
102
{ACAD_REACTORS
330
1A
102
}
330
1A
100
AcDbXrecord
280
     1
270
     1
271
     1
  0
XRECORD
  5
1B
102
{ACAD_REACTORS
330
1A
102
}
330
1A
100
AcDbXrecord
280
     1
270
     1
271
     1
  0
XRECORD
  5
1F
102
{ACAD_REACTORS
330
1A
102
}
330
1A
100
AcDbXrecord
280
     1
270
     1
271
     1
  0
XRECORD
  5
1E
102
{ACAD_REACTORS
330
1A
102
}
330
1A
100
AcDbXrecord
280
     1
270
     1
271
     1
  0
XRECORD
  5
20
102
{ACAD_REACTORS
330
1A
102
}
330
1A
100
AcDbXrecord
280
     1
270
     1
271
     1
  0
XRECORD
  5
1D
102
{ACAD_REACTORS
330
1A
102
}
330
1A
100
AcDbXrecord
280
     1
270
     1
271
     1
  0
XRECORD
  5
93C
102
{ACAD_REACTORS
330
12
102
}
330
12
100
AcDbXrecord
280
     1
102
MATERIAL
148
0.0
149
0.0
149
0.0
 93
        0
 94
      127
282
     0
 72
     0
 77
     0
171
     0
175
     0
179
     0
273
     0
  0
XRECORD
  5
14
102
{ACAD_REACTORS
330
12
102
}
330
12
100
AcDbXrecord
280
     1
270
     1
271
     1
  0
XRECORD
  5
13
102
{ACAD_REACTORS
330
12
102
}
330
12
100
AcDbXrecord
280
     1
270
     1
271
     1
  0
XRECORD
  5
1B3
102
{ACAD_REACTORS
330
12
102
}
330
12
100
AcDbXrecord
280
     1
 70
     1
 90
1959938040
 71
     1
  1
916F760C-6EBF-4C46-B73F-EE328CC26130
311
504B03040A0000080000DB5929403DEE336E79000000790000001B0000006175746F6465736B2D64657369676E2D7061636B6167652E786D6C3C3F786D6C2076657273696F6E3D22312E302220656E636F64696E673D227574662D3822203F3E3C666F726D6174733E3C666F726D61743E687474703A2F2F736368656D612E
311
6175746F6465736B2E636F6D2F64657369676E2D7061636B6167652F323030393C2F666F726D61743E3C2F666F726D6174733E504B0304140006080800DB592940D486FD9CA0000000F4000000130000005B436F6E74656E745F54797065735D2E786D6C7D8EC10E82300C865F65E91D8A1E8C310C0EEA1BF002731658846E
311
D98AC1B77784ABF1D8FE5FBFBF75BBCE937A534CCEB38643598122B6FEE978D0B0485F9C41B54DDD7D022595594E1A469170414C76A4D9A4D207E29CF43ECE46F218070CC6BECC4078ACAA135ACF422C856C0E68EA1BF5669944DDD7BCDE7B1F8E415D77AECB980613C2E4AC91FC167A2B244592486606FC29C8FD7F045B9A
311
EF7053A7E60B504B0304140006080800DB592940A97443D3EB0000007C01000008000000636F72652E786D6C8D90416EC3201045AF82665B6183B113DBC24469259FA01740401C94182C03558F5F9C3852BBEB6A467FFE9B197D7EFA9EEFE8CBACC17A37002D0820E394D7D64D03A478C12DA093E0ABF7F1970D9093B31960
311
9341F069F569D925E55D342E66D5796D76518660222075CFCD00415DCD2C0B996276845BB14875939329E8ABCB704A56A3E711ABF33E7BB1660571A4637366E3113707C6705DD52D3EB723C1B4FB20EF878675151B79B9C182473BBFEEABD5C86834888AD00A138A49F749694FEBBE69DE08ED09E1E566FF03A545FF134AD6
311
4556EDEF3EB10082E6471E03C1CB2D8B5C1E41E5BAE5267E00504B0304140006080800DB59294055019EA25F0000007C00000007000000636E782E786D6C4DCB3B0E80201045D1AD90E915ED2CF8AC45050C11660C8261F98AB1B07AC9C97D42D718D865D3E909258CFD00CCE24AC6E326A164D74DC0B4128928FF32603847
311
2BA13128B1252AC747C6BAB984FC68F0B87FE8960A5C09FE86CFB69FBA01504B0304140006080800DB59294090FF4FB666010000020300000C0000006662782F636F72652E786D6C8D52ED8A8330107C9590BF8726F1A35FC494DE814F702F906AEA49359198481FFFD68FE2F528A50831CCECECCE8EF2E3AD6DD0A06C5F1B
311
9D6116528C942E4C59EB2AC3DE5D821D4647C1AD31EE4F19465AB62AC3238C05AFACF1DD0215463BA51DA0DA946A0165DF2B8751D1C025C37DF1A35A194AEFA0A2BF869D2CAEB252210B81863AC17B67C1009A878C271697F38D931917DCFBBA5CD8BA8469F5A556168B2DCBD3539C6F837413C7411225BBE0B4CB69C0F65F
311
F47393C6FB28CE3919C582BBBABDBB2BAC924E9558449445016501DD7F337660C9214D3F283B50CAC958FE20F25DF9A6C8D7DAC5D1627796F55830303211FFB685881CEAE5007E88E0640C115E53C28F41432010B293E7E6BEC715A04115CED80498D2F8951A64E3154CA5687A389959E83C3580CD9EF6895EF479DD033EA0
311
D41558930EAE67EFC6E97C9EBA44D1291B0CEE86B4B1AD6C5673B3C5F55C073D9517A631F61D355956254B9864FC7BC52F504B0304140006080800DB5929404C386F167E0000009D0000000B0000006662782F636E782E786D6C4DCCD10A83201886E15B91FFDCB532A4811A59FDF711CB42663A9C8E5DFE6A74B0A30F1E3E
311
5ED17E3647DE26BE6CF012CACB1588F1F7305BBF4AC869A10D9056891842FABB01F1D366241C0C4AAC31E4E749B359A6ECD2AECEFAC789A51E4BECFB8A76358EB4661DD286734D354736DC18478D03144A14BFD2BE47587D01504B0304140006080800DB592940D373DEF32B01000014020000310000006662782F31424531
311
464343322D413446452D343341462D383636422D4236463344393336464246442F636F72652E786D6C8D515B6EC32010BC0AE22B55850DB6632511268A93F804BD000592A2C460F1A872FC42ED48ED5FF860D1ECCCEC88A5FBC77807DFCA796D4D07498121504658A9CDB583315CD006823DA3CEDAF0870681E1A3EA608621
311
A35767E3B440C29AA04C48A8B1522D20F75E0508C43D3D3AE8C5971A79C163480C7F2B262E6EFCAA0A52A476E231EA834B01C03C24DF9091FE4C86E3B142876638A3A63E0C68D3B63DEADBA13E6DEB76E887132D6721A3316AB9C8B54C71F4452BF7AA4916331AF4F88C2F9CE24149C82A4C2A8409C2DB0F4276A4D9ADD7EF
311
98EC30A665A6FF13C549BE288ADA84BA5AE2CE329FB2D2726E302A6DFCBC3FC3A8C7645D0079DECA2BF106192E3021553EB49CA9E9039267DB2C9E3E58973E7875FB4C6CB29E8DDB86D132EF2895DF05A69AF7C97E00504B0304140006080800DB5929404526C6264E01000033030000300000006662782F31424531464343
311
322D413446452D343341462D383636422D4236463344393336464246442F636E782E786D6CD593BD6E032110845F05D146F78373B6128BC3528A3C418AB418D6313107277EA2F8EDB3D8D871E322651A749A1D66569F38BEF99E2CF982108D7723656D4F0938E5B5711F23CD69D73C51B2113C789F6E6C943839C1488B4C05
311
FF083ECF55D2B093D92654AD71872A06883E070511E5729358AFA4C500704D4611A62D680D9A5C8DF8B58380ABA0B83D92B407F2FAF24EFCF613548ABC2B298277A543F072D6A61B1325CACA18471AD51E26D9CA9CBC867868B54CB265EDA5EBCE4EBF49A45CB854E66048291F6939A9A81BB5C8917738143CA680F4AA291D
311
67A042CEB3354A2684DC9D8C678FE0D9B8B41AAAD720F8806EB67A1C060C3BCD044F6682EA500164024DC5A2678BA6674DFFFCC6D89A0DEBE5F2A167EBBEE75DB10BBEF5DED64B1803C1CF447997C0252A18EFCAF81EBEEA23DA0464EDC3F10F2011406D3DD3B966FC673EDDE97D23AE807F81F801504B0304140006080800
311
DB592940CA0333399B0500007B100000340000006662782F31424531464343322D413446452D343341462D383636422D4236463344393336464246442F6F626A656374732E786D6CAD575D8F9B3814FD2B887D8684244D67560CD52499545177DAAA51AB7D1829326018EF980FD9669AE9AFDF633004D2649A5DF505B0B1AF
311
EF3DF7DC0FFBEFF619B79EA990ACC86F6CCF1DDB16CDA32266797A63572A71AE6CEB5DE08BA250BD65B695938CDED87ADA0EFC54145569A6629A908AABA3D9F5E26F4B4634A7B6157122E58D2DA3479A119754AA88A97C7263A2889B267BD7739B8543B1A920E5E391D092089A2B688AF91C52AC46296F381CDBA3C01FE9FF
311
81AF9F66D5F4FCAA516DCFF07C964B45F2E8A7C38EC44CBDD9EA6EF2E6DA79339B4D9DD97CE2398BF562E5786FA7E3E57CB9BCBEBDBBC6C1520948329A089AD8C17B602358E48F9A5F815FB15C4D27668971D048D067A63D650713CBF347CD9ACE3A63E429F5A322CF69546305346AFB8CE89896348FE173462534EB21341E
311
0E3D8D63EFF7548FCD91FDE9CB10E8EFE8096A756FDF7D4D8BF01F98202F6190905433B0C1D218DA70757C40382C0A6EFE3169654451C108B7380B05112F7680A57A49E00FC468260B1D0DDA023B80179ADF43BA208C7ECDF3535A2615E79AC6765047C10EB14295AC35633FA83868DF47063AC1579A0D57C620F552523BB8
311
6E287275C4A606482BE12485CB61A6DE399D1C19BAD471BA59D9C18775B8DFEAD83D7D78298A920AA5E9036AB58E6BDF1A25A3937791E7F406FB489503285F80FC4784FA4115F84DB0FD6C3F33A7284172991422836FACB1E58CF1185B5EFDD4DFBD2F7FD46D1E7AEF1C9E70B686EA37E039B4A1EFCB1E9C81FF0CC217626A
311
4CDB4684236DDCB31C00699258BCC014F27012EEED60832C87AC8C5D84071E4C86BACFF8F447460C12457D52EF9D03CBA3B4784182066C3523A146437EA3E0C14F3FA5B3FA60B3EC1CBC6F7E0B5D6F57DB0FDB4A2424A2F726A65734613953287107DEF4151A603EB0E889BE7C2F440C437FC67BDBC73B334749A0AD31D7C0
311
A76D4ED783C3C9830322EC4B0B9D6EFC5F9C00237461EDC9BF6732A29C939C16557BEEABF50365A3815807BB667257600E8505A469FE1CC5208A742458A941ECAA559734DD33D67DDD7C0423ED60F1F21779E967AFF0907BA382176217BEEC9AB47412EA6F436E1B0C465A0AE85E07491BFF06F45DCC92A49248822770FDB6
311
59F67DA7D30252442BB5899619EC4770116148DBCA45B5160495B4C8770C75137177F280BE7C406A18500B3CA7B1A43CD931CEAB6C97308E6AB4CB4879068EFFAF7F5865E58E644595AB33B207AAA33A0C751FB0577E272A7AB4836DFD7616C8BD318DCF9041D79213580D5C7BEDCDD76FE7E3A533BF5BAC9DD9723677166F
311
A76BE7EE6E3AB95A2E27736F7AD0A86EA202BF2D35FD88869750DAFC4A30E3BEAF1BC48F490276704F947C78DF8467FBFEBA71D10BFB23EC41BDEC36DEC6CFE8FB68FC6B01879527056DB292D38CE68AE818BAD71FFC0B419F3150A699DF6424A51748F9F47E7B640C662ED8F759C73BFD7EB4D7CC2E75409E14A21EAB2CCC
311
09E3471BD30649B7CC53835FEB93EEDD149A76A847C631E84C65C1598C3C185B292D32AA900D2F284222A312D4EBF7F4B1B97B5CB0FBB9E9101509396D3579246892B9445880E455A486F3D61F68EA745F7563A3DCBA4F78984C615BE0CC8D8D265DB1884A374481D6AD502D1C5CEA77F2E02CC9538E5EBBD9D48DBB5D1A9B
311
4149EE965CD23F19BB9A146E0C401A29D137A02182776A6502BFD6CDFC8FFE93E1AD3A1651F80C2BD5D97298E88CA98F4188364699DB029A982773F41E81FABA599E5BAF192072D12DEB551234521D45445ADF14B47E46A5DBD5E7113A146BF3C92A7995C297974B720405992B1DE06011586164964481AACB3F1F3E8B0237
311
D9CC5A3350E061596459919BC1ADB9095BDB47DC6BE307A405AA2F24F26132F6260FF545C0DC4D762191D425B17CC2047C2A5807F1C0F16064735B44056A7E74EB46DA0947DCDCAC2C53D266106A88D2CFAA1A16B41C39B5103DFA32A963A5BFA07CF52E30AA974205812E3EF817504B0304140006080000DB592940000000
311
000000000000000000350000006662782F31424531464343322D413446452D343341462D383636422D4236463344393336464246442F76657274696365732E62696E504B0304140006080800DB592940F270F1330600000004000000360000006662782F31424531464343322D413446452D343341462D383636422D423646
311
3344393336464246442F747269616E676C65732E62696E636660600000504B0304140006080000DB592940000000000000000000000000370000006662782F31424531464343322D413446452D343341462D383636422D4236463344393336464246442F617474726962757465732E62696E504B0304140006080800DB5929
311
40D5987DFC8F00000041010000360000006662782F31424531464343322D413446452D343341462D383636422D4236463344393336464246442F6469726563746F72792E786D6C858F410EC2201045AF4266AF15DDB800BA74E7C21B903225242D6328188F2FA5C4183471359997F9FF81E89FF3C41E1816475E02DF1F80A1
311
1FC8386F25A438EECEC07A250251FC3803E6F58C12560C4AD840E95E91C151A72936F496F35732D860FE635F62C8F2DA16B505C545B74125BAA2FA9E05D7CC053D063734D5C7665FD55B6B8D15D5E9BFEAFD8490FFA45E504B0304140006080800DB592940BADF6D4BFD000000A00100003B0000006662782F314245314643
311
43322D413446452D343341462D383636422D4236463344393336464246442F7265736F75726365732F636F72652E786D6C8D50596AC33010BD8A99DF225BF2D6D8C80A69C127E805843C714462C968293D7EE5D885F6AF3F33C35B98C7E3E7AFE5917DA2F3DA9A01584E2143A3ECA4CD3C400C577282EC2CB8B336FC924166
311
E482036C30083E3B1BD70352D6043421A1C64E7880D27B0C90A9473A06F0EA868BCC650C49E1EFF92AD55DCE98B33CD14927B80F2E05C8F627DB04E1D0DBE8147A5EECACE031EAE9D0E829FDD4578D0EC42B1B9B4B35B6A469AB8AD4657D2297D34809EBDEE95BDB545D598DBCD8CC8207BDFC64540E65C009444959492823
311
B4FB60AC6775DF342F94F594F26293FF31C575FAA7296A13AAF288BBDB3C0896823C09C18BADAFB49E65A6BD752BBE01504B010214000A0000080000DB5929403DEE336E79000000790000001B00000000000000000000000000000000006175746F6465736B2D64657369676E2D7061636B6167652E786D6C504B01021400
311
140006080800DB592940D486FD9CA0000000F40000001300000000000000000000000000B20000005B436F6E74656E745F54797065735D2E786D6C504B01021400140006080800DB592940A97443D3EB0000007C010000080000000000000000000000000083010000636F72652E786D6C504B01021400140006080800DB59
311
294055019EA25F0000007C000000070000000000000000000000000094020000636E782E786D6C504B01021400140006080800DB59294090FF4FB666010000020300000C00000000000000000000000000180300006662782F636F72652E786D6C504B01021400140006080800DB5929404C386F167E0000009D0000000B00
311
000000000000000000000000A80400006662782F636E782E786D6C504B01021400140006080800DB592940D373DEF32B0100001402000031000000000000000000000000004F0500006662782F31424531464343322D413446452D343341462D383636422D4236463344393336464246442F636F72652E786D6C504B010214
311
00140006080800DB5929404526C6264E010000330300003000000000000000000000000000C90600006662782F31424531464343322D413446452D343341462D383636422D4236463344393336464246442F636E782E786D6C504B01021400140006080800DB592940CA0333399B0500007B10000034000000000000000000
311
00000000650800006662782F31424531464343322D413446452D343341462D383636422D4236463344393336464246442F6F626A656374732E786D6C504B01021400140006080000DB5929400000000000000000000000003500000000000000000000000000520E00006662782F31424531464343322D413446452D343341
311
462D383636422D4236463344393336464246442F76657274696365732E62696E504B01021400140006080800DB592940F270F13306000000040000003600000000000000000000000000A50E00006662782F31424531464343322D413446452D343341462D383636422D4236463344393336464246442F747269616E676C65
311
732E62696E504B01021400140006080000DB5929400000000000000000000000003700000000000000000000000000FF0E00006662782F31424531464343322D413446452D343341462D383636422D4236463344393336464246442F617474726962757465732E62696E504B01021400140006080800DB592940D5987DFC8F
311
000000410100003600000000000000000000000000540F00006662782F31424531464343322D413446452D343341462D383636422D4236463344393336464246442F6469726563746F72792E786D6C504B01021400140006080800DB592940BADF6D4BFD000000A00100003B00000000000000000000000000371000006662
311
782F31424531464343322D413446452D343341462D383636422D4236463344393336464246442F7265736F75726365732F636F72652E786D6C504B0506000000000E000E00800400008D1100000000
310
504B03040A0000080000DB5929403DEE336E79000000790000001B0000006175746F6465736B2D64657369676E2D7061636B6167652E786D6C3C3F786D6C2076657273696F6E3D22312E302220656E636F64696E673D227574662D3822203F3E3C666F726D6174733E3C666F726D61743E687474703A2F2F736368656D612E
310
6175746F6465736B2E636F6D2F64657369676E2D7061636B6167652F323030393C2F666F726D61743E3C2F666F726D6174733E504B0304140006080800DB592940D486FD9CA0000000F4000000130000005B436F6E74656E745F54797065735D2E786D6C7D8EC10E82300C865F65E91D8A1E8C310C0EEA1BF002731658846E
310
D98AC1B77784ABF1D8FE5FBFBF75BBCE937A534CCEB38643598122B6FEE978D0B0485F9C41B54DDD7D022595594E1A469170414C76A4D9A4D207E29CF43ECE46F218070CC6BECC4078ACAA135ACF422C856C0E68EA1BF5669944DDD7BCDE7B1F8E415D77AECB980613C2E4AC91FC167A2B244592486606FC29C8FD7F045B9A
310
EF7053A7E60B504B0304140006080800DB592940107D107DEA0000007C01000008000000636F72652E786D6C8D90416EC3201045AF62CDB6C2063BAE8985892A2B3E412F80803828315806AA1EBF903852BBEB6A467FFE9B197D76FA5EEEC597DEBC717600526228B4954E193B0F10C30551284E9C6DCE855F3628AC58F400
310
5906CEE6CDC57597A4B341DB9054EB94DE45E1BD0E50C87B6A06F0F2AA17518A1892C3DFCA55C89B9875495E5D826334AA781E312AED3317A337E02D7EEF9AE384D1D89D093AD06E4494761F884C139D6873C66347589561CE82595EF7E5A645D00A788D498D3041F8F849484F0E7DDBBE61D263CCAA6CFF03C555FD138AC6
310
86A6DEDF7D621E787EE431E0ACCA59A4F2082AD59C1BFF01504B0304140006080800DB59294055019EA25F0000007C00000007000000636E782E786D6C4DCB3B0E80201045D1AD90E915ED2CF8AC45050C11660C8261F98AB1B07AC9C97D42D718D865D3E909258CFD00CCE24AC6E326A164D74DC0B4128928FF326038472B
310
A13128B1252AC747C6BAB984FC68F0B87FE8960A5C09FE86CFB69FBA01504B0304140006080800DB592940F4EACF6266010000020300000C0000006662782F636F72652E786D6C8D52ED8E8230107C95A67F2FA52DEA81A6D45C8C3CC1BD4085CA11A125A5253EFE2D1FC6F3628C2129CDCCCEEEEC80D85FDB060DDAF5B535
310
19E611C3489BC296B5A9321CFC99A418EDA570D6FA3F651819D5EA0C8F3096A27236740B5458E3B5F1801A5BEA05547DAF3D464503970CF7C58F6E55A482878AFE1275AAB8A84A473C021AEAA4E8BD0303681E329E589E4F5741675C8A10EA7261EB12A6D5E75A3B2C37EC33596D73460EC99193759A1C489A265F84E7799A
310
A7AB233B245CD0512C85AFDB9BBBC269E5758965CC784C18276CFBCDF98EAF779BCD07E33BC6041DCB1F44A12BDF1485DAF855BCD89D653D96A39189F8B72D44E451AF06F043A5A06388F09A127E0C1A028190BD3A35B73D2E000DBAF0D6AD81296DB853836A8286A90C4D8FA0330B9DA706B0D9D33EF18B3EAF7BC00754A6
310
026BCAC3F514FC385DCC5397283AEDC8E0AFC858D7AAE66E6EB6783FEF839ECA0BDB58F78E9A2EABD2254C3AFEBDF217504B0304140006080800DB592940FFC54F987D0000009D0000000B0000006662782F636E782E786D6C4DCCD10AC2201886E15B91FFDC362D9C07EA505AF7319A1B92F30FD3E8F2DB62071D7DF0F0F1
310
AAFEB346F2F6F915306960A716884F779C425A34D4325309A4372A2396BF1B9034AE5EC3CE60D492B13E0F9AFC3CD658368D213D0EEC64C71C1F2C65F676A517EE04958EB75438C7041FCE5672068D51CDAFB4ED1E365F504B0304140006080800DB592940649DA0B62A01000014020000310000006662782F373837314232
310
45412D314146442D343242362D384232302D3642423136324533413832312F636F72652E786D6C8D515B6EC32010BC0AE22B55850DC471DC0813C56A7A825E80D8244589C1E251E5F85D6A476AFFF2C3A2D999D98115FBFB7843DFDA07E36C8B594131D2B67783B19716A778260D467B29BC73F10F0D23AB46DDE20C63292E
310
DEA569817A67A3B61150EB06BD802A041D31EA6F706971E8BFF4A80A952230C2B598547F55175DB002DAC09322440F01D03C249F586E9B2DEBF8F140D8E1E39D54BCAB49D3714AEAAE63353FAE0F0D67A29C8552A46486456E068863CE46FB674DB2588A68C647FCDE6B15F58025A78C13CA087DFB646CC7AADD66F34AD98E
310
525166FA3F519A862745C9D8B8E64BDC5916B084D7CC0D2906974EB747187D9F9C8F28CF5B05DDBF60490BCA3610ADE1A29CA9F001E059578B6788CEC307AFAE2760AF17E3BA92A2CC3B82F2BB40A8799FF207504B0304140006080800DB592940238109315501000033030000300000006662782F37383731423245412D31
310
4146442D343242362D384232302D3642423136324533413832312F636E782E786D6CBD93CD6E022114855F85B06DE6071D8D350C265DF409BAE816E1AA540626C034F5ED7B51B46E5C3469BA2193730FE7DC7C61F8E66BB0E4134234DEF594D52D25E094D7C6ED7B3AA55DB5A2642378F03EDDD9287172809E66990ABE0F7E
310
1A8BA46127279B50B5C61D8B1820FA29288828E79BC47A252D0680AB261461D882D6A0C9CD885F3B08B80A8ADB13490720AF2FEFC46F3F40A5C89B9C2278933B04CF6769BA3351A2AC8CB1A7511D6090B59C92D7108FB59649D6ACBE763DD8E92789E40BD7CA291892CB7B9A4F2ACA463572E40D0E058F2920BD624AA711A8
310
90E3688D9209213767E3C523F8645C5A76C56B107C40F77CB65CAD30EC3C133C99018A430590093415B396CDAA9655EDF31B636BD6AD178BA796ADDB9637D92EF8D67B5B2E610C043F12E55D0297A860BCC9E347F88A8F681390B50FA75F804400A5F542E796F1977CD872DE75FFC8A739BF6FC415F02F10DF504B03041400
310
06080800DB5929403F16AD8A5A070000941B0000340000006662782F37383731423245412D314146442D343242362D384232302D3642423136324533413832312F6F626A656374732E786D6CED595B739B3814FE2B0CFB6C6C6C274D76089DC4B98CA79BB6536F3BFB9019460699682304238924DE5FBF4717301093E06DF6
310
AD0F3620A4A373BE73D521F8F89C51E71173417276E6FADEC475308BF384B0F4CC2DE56674E23A1FC380E7B96C4C731D86327CE6AA61370C529E97851D4AF00695547646AF2FFE72448C19769D982221CE5C11DFE30C79A8947982C583972089BC74F3ECF99E99D8269B7254DC7788168863268153186740C5314CF9EDC789
310
3B0E83B17A1F06EADFCE9A0D9A35EF9F35D652B7B9244C48C4E2172C75C8CC06B134F3E79757D3A3D3D1D17C3E1BCD8FA7FEE8E2FAE272E47F984D16C78BC5E9F9D529B0B7CE736A654A70815902FADBBAA11F8CD59B5A748BC03EAEE39C311C6B20012A2D569720C102B66AC037693FFA4AA2C66B2D61E379AEDE5B161AC3
310
B33695BE59C38068D10541EC7695C4D5B5295FBEFE1B0417438C920B2C815B213968D7C2C3C12BDC70128CCD6818AC77BA20C2C990C49C20EA50B2E688835260AA9A1206668125A39C8303294749A035675EB76D0B3CF36DD7D9C7E5A6A45479861B6AC78AC0FDB0149A33F20FE63BEE9BC8004F206D49983CB15CCA6D81DD
310
F03418EBC1305097D9D4BE34403A1B8A52A111316F3B822E94EB2F2FDDF0D3F5FA79A5C2C1FECD0B9E17984B65744A8F9A2F30647B5528D96DFD419A530B401803AA5DB903E51B20FF19A2C78E15D01B27CFF3E7B99D2B39626293F30C74E34C9CD104FE268EAFFFD57DE32E18D78BDBDAEBC313DC544175F2F378B665D058
310
59FE1B7086C123187CCE67F6D52A4614ECF996300048198943731882D0BE593FBBE1120227047A588568E883C8C0EE23DC06634B66A795CABDACD73140D4EE311BA224804D5B24B0D1A3A71BC81E9CC43B353545EC83F7E85DCCF5FC72F56955F20D8AF1ADF5E94BBC218C48C89AFB196A61DE92E8016F9F729E80A02FF15E
310
35F1CEEC5602D056982BE0D30A04F5B0DBB9B5410CEBD25C859BE08D1D400895AB1BF46F898831A588E1BCACF6ADA39B32D4DAE36DCDE0865303F16CDA31618E1F89AA2AC06976335A8C42DE8F392914886E786324AB83A6D723DDF7E567B0C87A7ECFAC2583D0CB10FD5307AD3D38B42CBB42DA02510BBCDE85F338A7398F
310
D6DBC8443A176A0960A3ED2D3F5A4421D61B25292AE041DAEFAA90921A69A3846C36A580B8BA87C51FCB45D31C26DECC3F729AFF1D679C43B405DF45DCFA5D678F886428C5D106257DDB3577AB690B4DB28734C71B0A72914722B71192D124C1E921D01C44FCF45DA9A7341782302C205FED05BF89C6C4834062B459B1ACB4
310
DA019A8828C312D1431050647AC0D56947D7B831940E6FF3585BEF6B1A6B12FD9F2C8223A82573161128452187BCC9B8EF1D410C69A36B50EEE00BD656D1D662D0124A88781B3D6192DECB435037E47B708FE14852CA282F500C663D80EC0B5F514AEDF0BE46F183CA1F515CD2F7321081E92622949659043FC2E0E431C4B5
310
EBC0F42A0A0DE226F6499C41518664C9876C727C3479B18FA919BA21B0B1D1865008DB51868A1ED45B0151D7234E0DBEA5DEA3D475991511CAF2920D32146FD6F5264BBEAB56457620BFAA5484B2B1226C09860161B2CEAA55CC0653D78115DC4807AA6D24505650730A7B23F1F8B53769CABD1B70EBA7EFBB4106855F8FF6
310
9A11755EC160796C1506E209C9F8DE0D57FA3ABA80FA3BC1C92ED557B566B30204C454242F39B12AFABE84F2C6D6686E788BA4B8BB3159B7BA7E5F7AD0FD08C6B0066A977AE152019D612691AA4C6ED50DFD862004B76898F1A5CAA98750394F125D35227A4DFAD4D92A235A9B66C42BEE31CB33F8B13BC2625A26F80E25E2
310
21BA95345A11C5BA95D2CB4885F1AB027EB95975E0819101227D55051E7EEAACB5A30B552EED2522EFCB6CCD108120D8122D35BAF10A965A8D545AAEAFEA4C017517189855F1FCD7C9A2D98EF875B248AD61FCD4C9E262FB07DA36FB228D741E2BBB3EE81850E72745E53D8E01BAED5053ADB38849E6567EEB4C1104C52ACA
310
0FAEC6AAA06108F671FC9FB3765F1634DB75F83F2C6BFB2F2A8E83B24A6BB2EA52EDA95C97CD1C76EA1F5F7F389E2C46C75717D7A3F9627E3CBAF830BB1E5D5DCDA6278BC5F4D89FED38D28E1A067530D3B90B9E4D50AB86D593C500BAB222A72481D37CE2A41862BE8433FD80F639CFB080E4D96C7627B6293F60F5A3E973
310
4AB4A6B8E2E41E4183980A48EB805119CBF6B8F31BB426251CB4CF5C681A790FF067ADD27520F39CB9D02A9024C6C25B439B4935F4347148B93AF75B62800F62A94A896651FD5CAF52D8B4C27F3D65481AB072B57A1850B815D0FD6A7528346F96A7F820C12B761C24E1765D4AA8D68C2CBB815A18BDCD4EFD46364AD883DD
310
FA195CF775B17C4FCF692132E893C1AB4660A88E24E2A9EE772BC62C4BE7975FC7D06773965F9C829629E87238A511C760CCA52AA8C08AC02A2CCD024930D5C5EF775F790E9F7832475745778B3CCB72661FCEE13C96C0272267750F1F7C923B281BB06AAB8BBBE9C49FDEE976B6EDB0476B24B0A7EA2118A8CA082542C7D8
310
C0225FB4A66CE372AC94D099BEBC746CF8843680B1A017DD5DF379CB01EF511F5294AF680FAFE47CB5A33DD653C11A38F4A2C37F01504B0304140006080000DB592940000000000000000000000000350000006662782F37383731423245412D314146442D343242362D384232302D3642423136324533413832312F766572
310
74696365732E62696E504B0304140006080800DB592940F270F1330600000004000000360000006662782F37383731423245412D314146442D343242362D384232302D3642423136324533413832312F747269616E676C65732E62696E636660600000504B0304140006080000DB5929400000000000000000000000003700
310
00006662782F37383731423245412D314146442D343242362D384232302D3642423136324533413832312F617474726962757465732E62696E504B0304140006080800DB592940D5987DFC8F00000041010000360000006662782F37383731423245412D314146442D343242362D384232302D364242313632453341383231
310
2F6469726563746F72792E786D6C858F410EC2201045AF4266AF15DDB800BA74E7C21B903225242D6328188F2FA5C4183471359997F9FF81E89FF3C41E1816475E02DF1F80A11FC8386F25A438EECEC07A250251FC3803E6F58C12560C4AD840E95E91C151A72936F496F35732D860FE635F62C8F2DA16B505C545B74125BA
310
A2FA9E05D7CC053D063734D5C7665FD55B6B8D15D5E9BFEAFD8490FFA45E504B0304140006080800DB592940614BB01DFD000000A00100003B0000006662782F37383731423245412D314146442D343242362D384232302D3642423136324533413832312F7265736F75726365732F636F72652E786D6C8D504B6AC33010BD
310
8A996D912DC549ED1859A198F804BD809026AE482C057D4A8F5F2971A1DD753333BC0FF378FCF4B5DEAA4FF4C1383B02AB29546895D3C62E23A478213D5427C1BD73F1970C2A2B571CA1C020F8E25DBA6F907236A28D19B54EE306CA103042A56EF91821A80F5C652D53CC8A70ADEF525DE58235AB339D758287E87380EAF9
310
A44C101E834B5E61E0CD93153C25A3378DD1F9A7B918F4200EF4B56B8FE7994CDD99917DDF4DA4EFBB37C2E6B99FFBF64CA78EF1A698058F66FDC9A83CCA881AC48EB21DA18CD0E33B6303DB0F87C30B6503A5BC29F23FA674D7FF34256363BBDBE23E6D014409F220046F4A5F793DCACCBB742BBE01504B010214000A0000
310
080000DB5929403DEE336E79000000790000001B00000000000000000000000000000000006175746F6465736B2D64657369676E2D7061636B6167652E786D6C504B01021400140006080800DB592940D486FD9CA0000000F40000001300000000000000000000000000B20000005B436F6E74656E745F54797065735D2E78
310
6D6C504B01021400140006080800DB592940107D107DEA0000007C010000080000000000000000000000000083010000636F72652E786D6C504B01021400140006080800DB59294055019EA25F0000007C000000070000000000000000000000000093020000636E782E786D6C504B01021400140006080800DB592940F4EA
310
CF6266010000020300000C00000000000000000000000000170300006662782F636F72652E786D6C504B01021400140006080800DB592940FFC54F987D0000009D0000000B00000000000000000000000000A70400006662782F636E782E786D6C504B01021400140006080800DB592940649DA0B62A010000140200003100
310
0000000000000000000000004D0500006662782F37383731423245412D314146442D343242362D384232302D3642423136324533413832312F636F72652E786D6C504B01021400140006080800DB5929402381093155010000330300003000000000000000000000000000C60600006662782F37383731423245412D314146
310
442D343242362D384232302D3642423136324533413832312F636E782E786D6C504B01021400140006080800DB5929403F16AD8A5A070000941B00003400000000000000000000000000690800006662782F37383731423245412D314146442D343242362D384232302D3642423136324533413832312F6F626A656374732E
310
786D6C504B01021400140006080000DB5929400000000000000000000000003500000000000000000000000000151000006662782F37383731423245412D314146442D343242362D384232302D3642423136324533413832312F76657274696365732E62696E504B01021400140006080800DB592940F270F1330600000004
310
0000003600000000000000000000000000681000006662782F37383731423245412D314146442D343242362D384232302D3642423136324533413832312F747269616E676C65732E62696E504B01021400140006080000DB5929400000000000000000000000003700000000000000000000000000C21000006662782F3738
310
3731423245412D314146442D343242362D384232302D3642423136324533413832312F617474726962757465732E62696E504B01021400140006080800DB592940D5987DFC8F000000410100003600000000000000000000000000171100006662782F37383731423245412D314146442D343242362D384232302D36424231
310
36324533413832312F6469726563746F72792E786D6C504B01021400140006080800DB592940614BB01DFD000000A00100003B00000000000000000000000000FA1100006662782F37383731423245412D314146442D343242362D384232302D3642423136324533413832312F7265736F75726365732F636F72652E786D6C
310
504B0506000000000E000E0080040000501300000000
  0
XRECORD
  5
17
102
{ACAD_REACTORS
330
12
102
}
330
12
100
AcDbXrecord
280
     1
270
     1
271
     1
  0
XRECORD
  5
16
102
{ACAD_REACTORS
330
12
102
}
330
12
100
AcDbXrecord
280
     1
270
     1
271
     1
  0
XRECORD
  5
18
102
{ACAD_REACTORS
330
12
102
}
330
12
100
AcDbXrecord
280
     1
270
     1
271
     1
  0
XRECORD
  5
15
102
{ACAD_REACTORS
330
12
102
}
330
12
100
AcDbXrecord
280
     1
270
     1
271
     1
  0
XRECORD
  5
93E
102
{ACAD_REACTORS
330
22
102
}
330
22
100
AcDbXrecord
280
     1
102
MATERIAL
148
0.0
149
0.0
149
0.0
 93
        0
 94
      127
282
     0
 72
     0
 77
     0
171
     0
175
     0
179
     0
273
     0
  0
XRECORD
  5
24
102
{ACAD_REACTORS
330
22
102
}
330
22
100
AcDbXrecord
280
     1
270
     1
271
     1
  0
XRECORD
  5
23
102
{ACAD_REACTORS
330
22
102
}
330
22
100
AcDbXrecord
280
     1
270
     1
271
     1
  0
XRECORD
  5
27
102
{ACAD_REACTORS
330
22
102
}
330
22
100
AcDbXrecord
280
     1
270
     1
271
     1
  0
XRECORD
  5
26
102
{ACAD_REACTORS
330
22
102
}
330
22
100
AcDbXrecord
280
     1
270
     1
271
     1
  0
XRECORD
  5
28
102
{ACAD_REACTORS
330
22
102
}
330
22
100
AcDbXrecord
280
     1
270
     1
271
     1
  0
XRECORD
  5
25
102
{ACAD_REACTORS
330
22
102
}
330
22
100
AcDbXrecord
280
     1
270
     1
271
     1
  0
XRECORD
  5
939
102
{ACAD_REACTORS
330
938
102
}
330
938
100
AcDbXrecord
280
     1
102
ACAD_ROUNDTRIP_2012_MLEADER_STYLE
298
     1
  0
CELLSTYLEMAP
  5
937
102
{ACAD_REACTORS
330
936
102
}
330
936
100
AcDbCellStyleMap
 90
        3
300
CELLSTYLE
  1
TABLEFORMAT_BEGIN
 90
        5
170
     1
 91
        0
 92
    32768
 62
   257
 93
        1
300
CONTENTFORMAT
  1
CONTENTFORMAT_BEGIN
 90
        0
 91
        0
 92
      512
 93
        0
300

 40
0.0
140
1.0
 94
        5
 62
     0
340
55
144
0.25
309
CONTENTFORMAT_END
171
     0
 94
        0
309
TABLEFORMAT_END
  1
CELLSTYLE_BEGIN
 90
        1
 91
        1
300
_TITLE
309
CELLSTYLE_END
300
CELLSTYLE
  1
TABLEFORMAT_BEGIN
 90
        5
170
     1
 91
        0
 92
        0
 62
   257
 93
        1
300
CONTENTFORMAT
  1
CONTENTFORMAT_BEGIN
 90
        0
 91
        0
 92
      512
 93
        0
300

 40
0.0
140
1.0
 94
        5
 62
     0
340
55
144
0.18
309
CONTENTFORMAT_END
171
     0
 94
        0
309
TABLEFORMAT_END
  1
CELLSTYLE_BEGIN
 90
        2
 91
        1
300
_HEADER
309
CELLSTYLE_END
300
CELLSTYLE
  1
TABLEFORMAT_BEGIN
 90
        5
170
     1
 91
        0
 92
        0
 62
   257
 93
        1
300
CONTENTFORMAT
  1
CONTENTFORMAT_BEGIN
 90
        0
 91
        0
 92
      512
 93
        0
300

 40
0.0
140
1.0
 94
        2
 62
     0
340
55
144
0.18
309
CONTENTFORMAT_END
171
     0
 94
        0
309
TABLEFORMAT_END
  1
CELLSTYLE_BEGIN
 90
        3
 91
        2
300
_DATA
309
CELLSTYLE_END
  0
XRECORD
  5
96F
102
{ACAD_REACTORS
330
936
102
}
330
936
100
AcDbXrecord
280
     1
102
ACAD_ROUNDTRIP_PRE2007_TABLESTYLE
 90
      512
 91
        0
  1

 92
      512
 93
        0
  2

 94
      512
 95
        0
  3

  0
XRECORD
  5
94A
102
{ACAD_REACTORS
330
949
102
}
330
949
100
AcDbXrecord
280
     1
102
RTVSPropertyOp0
 70
     1
102
RTVSPropertyOp1
 70
     1
102
RTVSPropertyOp2
 70
     1
102
RTVSPropertyOp3
 70
     1
102
RTVSPropertyOp4
 70
     1
102
RTVSPropertyOp5
 70
     1
102
RTVSPropertyOp6
 70
     1
102
RTVSPropertyOp7
 70
     1
102
RTVSPropertyOp8
 70
     1
102
RTVSPropertyOp9
 70
     1
102
RTVSPropertyOp10
 70
     1
102
RTVSPropertyOp11
 70
     1
102
RTVSPropertyOp12
 70
     1
102
RTVSPropertyOp13
 70
     1
102
RTVSPropertyOp14
 70
     1
102
RTVSPropertyOp15
 70
     1
102
RTVSPropertyOp16
 70
     1
102
RTVSPropertyOp17
 70
     1
102
RTVSPropertyOp18
 70
     1
102
RTVSPropertyOp19
 70
     1
102
RTVSPropertyOp20
 70
     1
102
RTVSPropertyOp21
 70
     1
102
RTVSPropertyOp22
 70
     1
102
RTVSPropertyOp23
 70
     1
102
RTVSPropertyOp24
 70
     1
102
RTVSPropertyOp25
 70
     1
102
RTVSPropertyOp26
 70
     1
102
RTVSPropertyOp27
 70
     1
102
RTVSPropertyOp28
 70
     1
102
RTVSPropertyOp29
 70
     1
102
RTVSPropertyOp30
 70
     1
102
RTVSPropertyOp31
 70
     1
102
RTVSPropertyOp32
 70
     1
  0
XRECORD
  5
948
102
{ACAD_REACTORS
330
947
102
}
330
947
100
AcDbXrecord
280
     1
102
RTVSPropertyOp0
 70
     1
102
RTVSPropertyOp1
 70
     1
102
RTVSPropertyOp2
 70
     1
102
RTVSPropertyOp3
 70
     1
102
RTVSPropertyOp4
 70
     1
102
RTVSPropertyOp5
 70
     1
102
RTVSPropertyOp6
 70
     1
102
RTVSPropertyOp7
 70
     1
102
RTVSPropertyOp8
 70
     1
102
RTVSPropertyOp9
 70
     1
102
RTVSPropertyOp10
 70
     1
102
RTVSPropertyOp11
 70
     1
102
RTVSPropertyOp12
 70
     1
102
RTVSPropertyOp13
 70
     1
102
RTVSPropertyOp14
 70
     1
102
RTVSPropertyOp15
 70
     1
102
RTVSPropertyOp16
 70
     1
102
RTVSPropertyOp17
 70
     1
102
RTVSPropertyOp18
 70
     1
102
RTVSPropertyOp19
 70
     1
102
RTVSPropertyOp20
 70
     1
102
RTVSPropertyOp21
 70
     1
102
RTVSPropertyOp22
 70
     1
102
RTVSPropertyOp23
 70
     1
102
RTVSPropertyOp24
 70
     1
102
RTVSPropertyOp25
 70
     1
102
RTVSPropertyOp26
 70
     1
102
RTVSPropertyOp27
 70
     1
102
RTVSPropertyOp28
 70
     1
102
RTVSPropertyOp29
 70
     1
102
RTVSPropertyOp30
 70
     1
102
RTVSPropertyOp31
 70
     1
102
RTVSPropertyOp32
 70
     1
  0
XRECORD
  5
956
102
{ACAD_REACTORS
330
955
102
}
330
955
100
AcDbXrecord
280
     1
102
RTVSPropertyOp0
 70
     1
102
RTVSPropertyOp1
 70
     1
102
RTVSPropertyOp2
 70
     1
102
RTVSPropertyOp3
 70
     1
102
RTVSPropertyOp4
 70
     1
102
RTVSPropertyOp5
 70
     1
102
RTVSPropertyOp6
 70
     1
102
RTVSPropertyOp7
 70
     1
102
RTVSPropertyOp8
 70
     1
102
RTVSPropertyOp9
 70
     1
102
RTVSPropertyOp10
 70
     1
102
RTVSPropertyOp11
 70
     1
102
RTVSPropertyOp12
 70
     1
102
RTVSPropertyOp13
 70
     1
102
RTVSPropertyOp14
 70
     1
102
RTVSPropertyOp15
 70
     1
102
RTVSPropertyOp16
 70
     1
102
RTVSPropertyOp17
 70
     1
102
RTVSPropertyOp18
 70
     1
102
RTVSPropertyOp19
 70
     1
102
RTVSPropertyOp20
 70
     1
102
RTVSPropertyOp21
 70
     1
102
RTVSPropertyOp22
 70
     1
102
RTVSPropertyOp23
 70
     1
102
RTVSPropertyOp24
 70
     1
102
RTVSPropertyOp25
 70
     1
102
RTVSPropertyOp26
 70
     1
102
RTVSPropertyOp27
 70
     1
102
RTVSPropertyOp28
 70
     1
102
RTVSPropertyOp29
 70
     1
102
RTVSPropertyOp30
 70
     1
102
RTVSPropertyOp31
 70
     1
102
RTVSPropertyOp32
 70
     1
  0
XRECORD
  5
95E
102
{ACAD_REACTORS
330
95D
102
}
330
95D
100
AcDbXrecord
280
     1
102
RTVSPropertyOp0
 70
     1
102
RTVSPropertyOp1
 70
     1
102
RTVSPropertyOp2
 70
     1
102
RTVSPropertyOp3
 70
     1
102
RTVSPropertyOp4
 70
     1
102
RTVSPropertyOp5
 70
     1
102
RTVSPropertyOp6
 70
     1
102
RTVSPropertyOp7
 70
     1
102
RTVSPropertyOp8
 70
     1
102
RTVSPropertyOp9
 70
     1
102
RTVSPropertyOp10
 70
     1
102
RTVSPropertyOp11
 70
     1
102
RTVSPropertyOp12
 70
     1
102
RTVSPropertyOp13
 70
     1
102
RTVSPropertyOp14
 70
     1
102
RTVSPropertyOp15
 70
     1
102
RTVSPropertyOp16
 70
     1
102
RTVSPropertyOp17
 70
     1
102
RTVSPropertyOp18
 70
     1
102
RTVSPropertyOp19
 70
     1
102
RTVSPropertyOp20
 70
     1
102
RTVSPropertyOp21
 70
     1
102
RTVSPropertyOp22
 70
     1
102
RTVSPropertyOp23
 70
     1
102
RTVSPropertyOp24
 70
     1
102
RTVSPropertyOp25
 70
     1
102
RTVSPropertyOp26
 70
     1
102
RTVSPropertyOp27
 70
     1
102
RTVSPropertyOp28
 70
     1
102
RTVSPropertyOp29
 70
     1
102
RTVSPropertyOp30
 70
     1
102
RTVSPropertyOp31
 70
     1
102
RTVSPropertyOp32
 70
     1
  0
XRECORD
  5
950
102
{ACAD_REACTORS
330
94F
102
}
330
94F
100
AcDbXrecord
280
     1
102
RTVSPropertyOp0
 70
     1
102
RTVSPropertyOp1
 70
     1
102
RTVSPropertyOp2
 70
     1
102
RTVSPropertyOp3
 70
     1
102
RTVSPropertyOp4
 70
     1
102
RTVSPropertyOp5
 70
     1
102
RTVSPropertyOp6
 70
     1
102
RTVSPropertyOp7
 70
     1
102
RTVSPropertyOp8
 70
     1
102
RTVSPropertyOp9
 70
     1
102
RTVSPropertyOp10
 70
     1
102
RTVSPropertyOp11
 70
     1
102
RTVSPropertyOp12
 70
     1
102
RTVSPropertyOp13
 70
     1
102
RTVSPropertyOp14
 70
     1
102
RTVSPropertyOp15
 70
     1
102
RTVSPropertyOp16
 70
     1
102
RTVSPropertyOp17
 70
     1
102
RTVSPropertyOp18
 70
     1
102
RTVSPropertyOp19
 70
     1
102
RTVSPropertyOp20
 70
     1
102
RTVSPropertyOp21
 70
     1
102
RTVSPropertyOp22
 70
     1
102
RTVSPropertyOp23
 70
     1
102
RTVSPropertyOp24
 70
     1
102
RTVSPropertyOp25
 70
     1
102
RTVSPropertyOp26
 70
     1
102
RTVSPropertyOp27
 70
     1
102
RTVSPropertyOp28
 70
     1
102
RTVSPropertyOp29
 70
     1
102
RTVSPropertyOp30
 70
     1
102
RTVSPropertyOp31
 70
     1
102
RTVSPropertyOp32
 70
     1
  0
XRECORD
  5
954
102
{ACAD_REACTORS
330
953
102
}
330
953
100
AcDbXrecord
280
     1
102
RTVSPropertyOp0
 70
     1
102
RTVSPropertyOp1
 70
     1
102
RTVSPropertyOp2
 70
     1
102
RTVSPropertyOp3
 70
     1
102
RTVSPropertyOp4
 70
     1
102
RTVSPropertyOp5
 70
     1
102
RTVSPropertyOp6
 70
     1
102
RTVSPropertyOp7
 70
     1
102
RTVSPropertyOp8
 70
     1
102
RTVSPropertyOp9
 70
     1
102
RTVSPropertyOp10
 70
     1
102
RTVSPropertyOp11
 70
     1
102
RTVSPropertyOp12
 70
     1
102
RTVSPropertyOp13
 70
     1
102
RTVSPropertyOp14
 70
     1
102
RTVSPropertyOp15
 70
     1
102
RTVSPropertyOp16
 70
     1
102
RTVSPropertyOp17
 70
     1
102
RTVSPropertyOp18
 70
     1
102
RTVSPropertyOp19
 70
     1
102
RTVSPropertyOp20
 70
     1
102
RTVSPropertyOp21
 70
     1
102
RTVSPropertyOp22
 70
     1
102
RTVSPropertyOp23
 70
     1
102
RTVSPropertyOp24
 70
     1
102
RTVSPropertyOp25
 70
     1
102
RTVSPropertyOp26
 70
     1
102
RTVSPropertyOp27
 70
     1
102
RTVSPropertyOp28
 70
     1
102
RTVSPropertyOp29
 70
     1
102
RTVSPropertyOp30
 70
     1
102
RTVSPropertyOp31
 70
     1
102
RTVSPropertyOp32
 70
     1
  0
XRECORD
  5
96E
102
{ACAD_REACTORS
330
96D
102
}
330
96D
100
AcDbXrecord
280
     1
102
RTVSPropertyOp0
 70
     0
102
RTVSPropertyOp1
 70
     0
102
RTVSPropertyOp2
 70
     0
102
RTVSPropertyOp3
 70
     0
102
RTVSPropertyOp4
 70
     0
102
RTVSPropertyOp5
 70
     0
102
RTVSPropertyOp6
 70
     0
102
RTVSPropertyOp7
 70
     0
102
RTVSPropertyOp8
 70
     0
102
RTVSPropertyOp9
 70
     0
102
RTVSPropertyOp10
 70
     0
102
RTVSPropertyOp11
 70
     0
102
RTVSPropertyOp12
 70
     0
102
RTVSPropertyOp13
 70
     0
102
RTVSPropertyOp14
 70
     2
102
RTVSPropertyOp15
 70
     0
102
RTVSPropertyOp16
 70
     0
102
RTVSPropertyOp17
 70
     0
102
RTVSPropertyOp18
 70
     0
102
RTVSPropertyOp19
 70
     0
102
RTVSPropertyOp20
 70
     0
102
RTVSPropertyOp21
 70
     0
102
RTVSPropertyOp22
 70
     0
102
RTVSPropertyOp23
 70
     0
102
RTVSPropertyOp24
 70
     0
102
RTVSPropertyOp25
 70
     0
102
RTVSPropertyOp26
 70
     0
102
RTVSPropertyOp27
 70
     0
102
RTVSPropertyOp28
 70
     0
102
RTVSPropertyOp29
 70
     0
102
RTVSPropertyOp30
 70
     0
102
RTVSPropertyOp31
 70
     0
102
RTVSPropertyOp32
 70
     0
  0
XRECORD
  5
95C
102
{ACAD_REACTORS
330
95B
102
}
330
95B
100
AcDbXrecord
280
     1
102
RTVSPropertyOp0
 70
     1
102
RTVSPropertyOp1
 70
     1
102
RTVSPropertyOp2
 70
     1
102
RTVSPropertyOp3
 70
     1
102
RTVSPropertyOp4
 70
     1
102
RTVSPropertyOp5
 70
     1
102
RTVSPropertyOp6
 70
     1
102
RTVSPropertyOp7
 70
     1
102
RTVSPropertyOp8
 70
     1
102
RTVSPropertyOp9
 70
     1
102
RTVSPropertyOp10
 70
     1
102
RTVSPropertyOp11
 70
     1
102
RTVSPropertyOp12
 70
     1
102
RTVSPropertyOp13
 70
     1
102
RTVSPropertyOp14
 70
     1
102
RTVSPropertyOp15
 70
     1
102
RTVSPropertyOp16
 70
     1
102
RTVSPropertyOp17
 70
     1
102
RTVSPropertyOp18
 70
     1
102
RTVSPropertyOp19
 70
     1
102
RTVSPropertyOp20
 70
     1
102
RTVSPropertyOp21
 70
     1
102
RTVSPropertyOp22
 70
     1
102
RTVSPropertyOp23
 70
     1
102
RTVSPropertyOp24
 70
     1
102
RTVSPropertyOp25
 70
     1
102
RTVSPropertyOp26
 70
     1
102
RTVSPropertyOp27
 70
     1
102
RTVSPropertyOp28
 70
     1
102
RTVSPropertyOp29
 70
     1
102
RTVSPropertyOp30
 70
     1
102
RTVSPropertyOp31
 70
     1
102
RTVSPropertyOp32
 70
     1
  0
XRECORD
  5
940
102
{ACAD_REACTORS
330
93F
102
}
330
93F
100
AcDbXrecord
280
     1
102
RTVSPropertyOp0
 70
     1
102
RTVSPropertyOp1
 70
     1
102
RTVSPropertyOp2
 70
     1
102
RTVSPropertyOp3
 70
     1
102
RTVSPropertyOp4
 70
     1
102
RTVSPropertyOp5
 70
     1
102
RTVSPropertyOp6
 70
     1
102
RTVSPropertyOp7
 70
     1
102
RTVSPropertyOp8
 70
     1
102
RTVSPropertyOp9
 70
     1
102
RTVSPropertyOp10
 70
     1
102
RTVSPropertyOp11
 70
     1
102
RTVSPropertyOp12
 70
     1
102
RTVSPropertyOp13
 70
     1
102
RTVSPropertyOp14
 70
     1
102
RTVSPropertyOp15
 70
     1
102
RTVSPropertyOp16
 70
     1
102
RTVSPropertyOp17
 70
     1
102
RTVSPropertyOp18
 70
     1
102
RTVSPropertyOp19
 70
     1
102
RTVSPropertyOp20
 70
     1
102
RTVSPropertyOp21
 70
     1
102
RTVSPropertyOp22
 70
     1
102
RTVSPropertyOp23
 70
     1
102
RTVSPropertyOp24
 70
     1
102
RTVSPropertyOp25
 70
     1
102
RTVSPropertyOp26
 70
     1
102
RTVSPropertyOp27
 70
     1
102
RTVSPropertyOp28
 70
     1
102
RTVSPropertyOp29
 70
     1
102
RTVSPropertyOp30
 70
     1
102
RTVSPropertyOp31
 70
     1
102
RTVSPropertyOp32
 70
     1
  0
XRECORD
  5
942
102
{ACAD_REACTORS
330
941
102
}
330
941
100
AcDbXrecord
280
     1
102
RTVSPropertyOp0
 70
     1
102
RTVSPropertyOp1
 70
     1
102
RTVSPropertyOp2
 70
     1
102
RTVSPropertyOp3
 70
     1
102
RTVSPropertyOp4
 70
     1
102
RTVSPropertyOp5
 70
     1
102
RTVSPropertyOp6
 70
     1
102
RTVSPropertyOp7
 70
     1
102
RTVSPropertyOp8
 70
     1
102
RTVSPropertyOp9
 70
     1
102
RTVSPropertyOp10
 70
     1
102
RTVSPropertyOp11
 70
     1
102
RTVSPropertyOp12
 70
     1
102
RTVSPropertyOp13
 70
     1
102
RTVSPropertyOp14
 70
     1
102
RTVSPropertyOp15
 70
     1
102
RTVSPropertyOp16
 70
     1
102
RTVSPropertyOp17
 70
     1
102
RTVSPropertyOp18
 70
     1
102
RTVSPropertyOp19
 70
     1
102
RTVSPropertyOp20
 70
     1
102
RTVSPropertyOp21
 70
     1
102
RTVSPropertyOp22
 70
     1
102
RTVSPropertyOp23
 70
     1
102
RTVSPropertyOp24
 70
     1
102
RTVSPropertyOp25
 70
     1
102
RTVSPropertyOp26
 70
     1
102
RTVSPropertyOp27
 70
     1
102
RTVSPropertyOp28
 70
     1
102
RTVSPropertyOp29
 70
     1
102
RTVSPropertyOp30
 70
     1
102
RTVSPropertyOp31
 70
     1
102
RTVSPropertyOp32
 70
     1
  0
XRECORD
  5
944
102
{ACAD_REACTORS
330
943
102
}
330
943
100
AcDbXrecord
280
     1
102
RTVSPropertyOp0
 70
     1
102
RTVSPropertyOp1
 70
     1
102
RTVSPropertyOp2
 70
     1
102
RTVSPropertyOp3
 70
     1
102
RTVSPropertyOp4
 70
     1
102
RTVSPropertyOp5
 70
     1
102
RTVSPropertyOp6
 70
     1
102
RTVSPropertyOp7
 70
     1
102
RTVSPropertyOp8
 70
     1
102
RTVSPropertyOp9
 70
     1
102
RTVSPropertyOp10
 70
     1
102
RTVSPropertyOp11
 70
     1
102
RTVSPropertyOp12
 70
     1
102
RTVSPropertyOp13
 70
     1
102
RTVSPropertyOp14
 70
     1
102
RTVSPropertyOp15
 70
     1
102
RTVSPropertyOp16
 70
     1
102
RTVSPropertyOp17
 70
     1
102
RTVSPropertyOp18
 70
     1
102
RTVSPropertyOp19
 70
     1
102
RTVSPropertyOp20
 70
     1
102
RTVSPropertyOp21
 70
     1
102
RTVSPropertyOp22
 70
     1
102
RTVSPropertyOp23
 70
     1
102
RTVSPropertyOp24
 70
     1
102
RTVSPropertyOp25
 70
     1
102
RTVSPropertyOp26
 70
     1
102
RTVSPropertyOp27
 70
     1
102
RTVSPropertyOp28
 70
     1
102
RTVSPropertyOp29
 70
     1
102
RTVSPropertyOp30
 70
     1
102
RTVSPropertyOp31
 70
     1
102
RTVSPropertyOp32
 70
     1
  0
XRECORD
  5
946
102
{ACAD_REACTORS
330
945
102
}
330
945
100
AcDbXrecord
280
     1
102
RTVSPropertyOp0
 70
     1
102
RTVSPropertyOp1
 70
     1
102
RTVSPropertyOp2
 70
     1
102
RTVSPropertyOp3
 70
     1
102
RTVSPropertyOp4
 70
     1
102
RTVSPropertyOp5
 70
     1
102
RTVSPropertyOp6
 70
     1
102
RTVSPropertyOp7
 70
     1
102
RTVSPropertyOp8
 70
     1
102
RTVSPropertyOp9
 70
     1
102
RTVSPropertyOp10
 70
     1
102
RTVSPropertyOp11
 70
     1
102
RTVSPropertyOp12
 70
     1
102
RTVSPropertyOp13
 70
     1
102
RTVSPropertyOp14
 70
     1
102
RTVSPropertyOp15
 70
     1
102
RTVSPropertyOp16
 70
     1
102
RTVSPropertyOp17
 70
     1
102
RTVSPropertyOp18
 70
     1
102
RTVSPropertyOp19
 70
     1
102
RTVSPropertyOp20
 70
     1
102
RTVSPropertyOp21
 70
     1
102
RTVSPropertyOp22
 70
     1
102
RTVSPropertyOp23
 70
     1
102
RTVSPropertyOp24
 70
     1
102
RTVSPropertyOp25
 70
     1
102
RTVSPropertyOp26
 70
     1
102
RTVSPropertyOp27
 70
     1
102
RTVSPropertyOp28
 70
     1
102
RTVSPropertyOp29
 70
     1
102
RTVSPropertyOp30
 70
     1
102
RTVSPropertyOp31
 70
     1
102
RTVSPropertyOp32
 70
     1
  0
XRECORD
  5
94E
102
{ACAD_REACTORS
330
94D
102
}
330
94D
100
AcDbXrecord
280
     1
102
RTVSPropertyOp0
 70
     1
102
RTVSPropertyOp1
 70
     1
102
RTVSPropertyOp2
 70
     1
102
RTVSPropertyOp3
 70
     1
102
RTVSPropertyOp4
 70
     1
102
RTVSPropertyOp5
 70
     1
102
RTVSPropertyOp6
 70
     1
102
RTVSPropertyOp7
 70
     1
102
RTVSPropertyOp8
 70
     1
102
RTVSPropertyOp9
 70
     1
102
RTVSPropertyOp10
 70
     1
102
RTVSPropertyOp11
 70
     1
102
RTVSPropertyOp12
 70
     1
102
RTVSPropertyOp13
 70
     1
102
RTVSPropertyOp14
 70
     1
102
RTVSPropertyOp15
 70
     1
102
RTVSPropertyOp16
 70
     1
102
RTVSPropertyOp17
 70
     1
102
RTVSPropertyOp18
 70
     1
102
RTVSPropertyOp19
 70
     1
102
RTVSPropertyOp20
 70
     1
102
RTVSPropertyOp21
 70
     1
102
RTVSPropertyOp22
 70
     1
102
RTVSPropertyOp23
 70
     1
102
RTVSPropertyOp24
 70
     1
102
RTVSPropertyOp25
 70
     1
102
RTVSPropertyOp26
 70
     1
102
RTVSPropertyOp27
 70
     1
102
RTVSPropertyOp28
 70
     1
102
RTVSPropertyOp29
 70
     1
102
RTVSPropertyOp30
 70
     1
102
RTVSPropertyOp31
 70
     1
102
RTVSPropertyOp32
 70
     1
  0
XRECORD
  5
96A
102
{ACAD_REACTORS
330
969
102
}
330
969
100
AcDbXrecord
280
     1
102
RTVSPropertyOp0
 70
     0
102
RTVSPropertyOp1
 70
     0
102
RTVSPropertyOp2
 70
     0
102
RTVSPropertyOp3
 70
     0
102
RTVSPropertyOp4
 70
     0
102
RTVSPropertyOp5
 70
     0
102
RTVSPropertyOp6
 70
     0
102
RTVSPropertyOp7
 70
     0
102
RTVSPropertyOp8
 70
     0
102
RTVSPropertyOp9
 70
     0
102
RTVSPropertyOp10
 70
     0
102
RTVSPropertyOp11
 70
     0
102
RTVSPropertyOp12
 70
     0
102
RTVSPropertyOp13
 70
     0
102
RTVSPropertyOp14
 70
     2
102
RTVSPropertyOp15
 70
     0
102
RTVSPropertyOp16
 70
     0
102
RTVSPropertyOp17
 70
     0
102
RTVSPropertyOp18
 70
     0
102
RTVSPropertyOp19
 70
     0
102
RTVSPropertyOp20
 70
     0
102
RTVSPropertyOp21
 70
     0
102
RTVSPropertyOp22
 70
     0
102
RTVSPropertyOp23
 70
     0
102
RTVSPropertyOp24
 70
     0
102
RTVSPropertyOp25
 70
     0
102
RTVSPropertyOp26
 70
     0
102
RTVSPropertyOp27
 70
     0
102
RTVSPropertyOp28
 70
     0
102
RTVSPropertyOp29
 70
     0
102
RTVSPropertyOp30
 70
     0
102
RTVSPropertyOp31
 70
     0
102
RTVSPropertyOp32
 70
     0
  0
XRECORD
  5
95A
102
{ACAD_REACTORS
330
959
102
}
330
959
100
AcDbXrecord
280
     1
102
RTVSPropertyOp0
 70
     1
102
RTVSPropertyOp1
 70
     1
102
RTVSPropertyOp2
 70
     1
102
RTVSPropertyOp3
 70
     1
102
RTVSPropertyOp4
 70
     1
102
RTVSPropertyOp5
 70
     1
102
RTVSPropertyOp6
 70
     1
102
RTVSPropertyOp7
 70
     1
102
RTVSPropertyOp8
 70
     1
102
RTVSPropertyOp9
 70
     1
102
RTVSPropertyOp10
 70
     1
102
RTVSPropertyOp11
 70
     1
102
RTVSPropertyOp12
 70
     1
102
RTVSPropertyOp13
 70
     1
102
RTVSPropertyOp14
 70
     1
102
RTVSPropertyOp15
 70
     1
102
RTVSPropertyOp16
 70
     1
102
RTVSPropertyOp17
 70
     1
102
RTVSPropertyOp18
 70
     1
102
RTVSPropertyOp19
 70
     1
102
RTVSPropertyOp20
 70
     1
102
RTVSPropertyOp21
 70
     1
102
RTVSPropertyOp22
 70
     1
102
RTVSPropertyOp23
 70
     1
102
RTVSPropertyOp24
 70
     1
102
RTVSPropertyOp25
 70
     1
102
RTVSPropertyOp26
 70
     1
102
RTVSPropertyOp27
 70
     1
102
RTVSPropertyOp28
 70
     1
102
RTVSPropertyOp29
 70
     1
102
RTVSPropertyOp30
 70
     1
102
RTVSPropertyOp31
 70
     1
102
RTVSPropertyOp32
 70
     1
  0
XRECORD
  5
96C
102
{ACAD_REACTORS
330
96B
102
}
330
96B
100
AcDbXrecord
280
     1
102
RTVSPropertyOp0
 70
     0
102
RTVSPropertyOp1
 70
     0
102
RTVSPropertyOp2
 70
     0
102
RTVSPropertyOp3
 70
     0
102
RTVSPropertyOp4
 70
     0
102
RTVSPropertyOp5
 70
     0
102
RTVSPropertyOp6
 70
     0
102
RTVSPropertyOp7
 70
     0
102
RTVSPropertyOp8
 70
     0
102
RTVSPropertyOp9
 70
     0
102
RTVSPropertyOp10
 70
     0
102
RTVSPropertyOp11
 70
     0
102
RTVSPropertyOp12
 70
     0
102
RTVSPropertyOp13
 70
     0
102
RTVSPropertyOp14
 70
     2
102
RTVSPropertyOp15
 70
     0
102
RTVSPropertyOp16
 70
     0
102
RTVSPropertyOp17
 70
     0
102
RTVSPropertyOp18
 70
     0
102
RTVSPropertyOp19
 70
     0
102
RTVSPropertyOp20
 70
     0
102
RTVSPropertyOp21
 70
     0
102
RTVSPropertyOp22
 70
     0
102
RTVSPropertyOp23
 70
     0
102
RTVSPropertyOp24
 70
     0
102
RTVSPropertyOp25
 70
     0
102
RTVSPropertyOp26
 70
     0
102
RTVSPropertyOp27
 70
     0
102
RTVSPropertyOp28
 70
     0
102
RTVSPropertyOp29
 70
     0
102
RTVSPropertyOp30
 70
     0
102
RTVSPropertyOp31
 70
     0
102
RTVSPropertyOp32
 70
     0
  0
XRECORD
  5
952
102
{ACAD_REACTORS
330
951
102
}
330
951
100
AcDbXrecord
280
     1
102
RTVSPropertyOp0
 70
     1
102
RTVSPropertyOp1
 70
     1
102
RTVSPropertyOp2
 70
     1
102
RTVSPropertyOp3
 70
     1
102
RTVSPropertyOp4
 70
     1
102
RTVSPropertyOp5
 70
     1
102
RTVSPropertyOp6
 70
     1
102
RTVSPropertyOp7
 70
     1
102
RTVSPropertyOp8
 70
     1
102
RTVSPropertyOp9
 70
     1
102
RTVSPropertyOp10
 70
     1
102
RTVSPropertyOp11
 70
     1
102
RTVSPropertyOp12
 70
     1
102
RTVSPropertyOp13
 70
     1
102
RTVSPropertyOp14
 70
     1
102
RTVSPropertyOp15
 70
     1
102
RTVSPropertyOp16
 70
     1
102
RTVSPropertyOp17
 70
     1
102
RTVSPropertyOp18
 70
     1
102
RTVSPropertyOp19
 70
     1
102
RTVSPropertyOp20
 70
     1
102
RTVSPropertyOp21
 70
     1
102
RTVSPropertyOp22
 70
     1
102
RTVSPropertyOp23
 70
     1
102
RTVSPropertyOp24
 70
     1
102
RTVSPropertyOp25
 70
     1
102
RTVSPropertyOp26
 70
     1
102
RTVSPropertyOp27
 70
     1
102
RTVSPropertyOp28
 70
     1
102
RTVSPropertyOp29
 70
     1
102
RTVSPropertyOp30
 70
     1
102
RTVSPropertyOp31
 70
     1
102
RTVSPropertyOp32
 70
     1
  0
XRECORD
  5
968
102
{ACAD_REACTORS
330
967
102
}
330
967
100
AcDbXrecord
280
     1
102
RTVSPropertyOp0
 70
     1
102
RTVSPropertyOp1
 70
     1
102
RTVSPropertyOp2
 70
     1
102
RTVSPropertyOp3
 70
     1
102
RTVSPropertyOp4
 70
     1
102
RTVSPropertyOp5
 70
     1
102
RTVSPropertyOp6
 70
     1
102
RTVSPropertyOp7
 70
     1
102
RTVSPropertyOp8
 70
     1
102
RTVSPropertyOp9
 70
     1
102
RTVSPropertyOp10
 70
     1
102
RTVSPropertyOp11
 70
     1
102
RTVSPropertyOp12
 70
     1
102
RTVSPropertyOp13
 70
     1
102
RTVSPropertyOp14
 70
     1
102
RTVSPropertyOp15
 70
     1
102
RTVSPropertyOp16
 70
     1
102
RTVSPropertyOp17
 70
     1
102
RTVSPropertyOp18
 70
     1
102
RTVSPropertyOp19
 70
     1
102
RTVSPropertyOp20
 70
     1
102
RTVSPropertyOp21
 70
     1
102
RTVSPropertyOp22
 70
     1
102
RTVSPropertyOp23
 70
     1
102
RTVSPropertyOp24
 70
     1
102
RTVSPropertyOp25
 70
     1
102
RTVSPropertyOp26
 70
     1
102
RTVSPropertyOp27
 70
     1
102
RTVSPropertyOp28
 70
     1
102
RTVSPropertyOp29
 70
     1
102
RTVSPropertyOp30
 70
     1
102
RTVSPropertyOp31
 70
     1
102
RTVSPropertyOp32
 70
     1
  0
XRECORD
  5
966
102
{ACAD_REACTORS
330
965
102
}
330
965
100
AcDbXrecord
280
     1
102
RTVSPropertyOp0
 70
     1
102
RTVSPropertyOp1
 70
     1
102
RTVSPropertyOp2
 70
     1
102
RTVSPropertyOp3
 70
     1
102
RTVSPropertyOp4
 70
     1
102
RTVSPropertyOp5
 70
     1
102
RTVSPropertyOp6
 70
     1
102
RTVSPropertyOp7
 70
     1
102
RTVSPropertyOp8
 70
     1
102
RTVSPropertyOp9
 70
     1
102
RTVSPropertyOp10
 70
     1
102
RTVSPropertyOp11
 70
     1
102
RTVSPropertyOp12
 70
     1
102
RTVSPropertyOp13
 70
     1
102
RTVSPropertyOp14
 70
     1
102
RTVSPropertyOp15
 70
     1
102
RTVSPropertyOp16
 70
     1
102
RTVSPropertyOp17
 70
     1
102
RTVSPropertyOp18
 70
     1
102
RTVSPropertyOp19
 70
     1
102
RTVSPropertyOp20
 70
     1
102
RTVSPropertyOp21
 70
     1
102
RTVSPropertyOp22
 70
     1
102
RTVSPropertyOp23
 70
     1
102
RTVSPropertyOp24
 70
     1
102
RTVSPropertyOp25
 70
     1
102
RTVSPropertyOp26
 70
     1
102
RTVSPropertyOp27
 70
     1
102
RTVSPropertyOp28
 70
     1
102
RTVSPropertyOp29
 70
     1
102
RTVSPropertyOp30
 70
     1
102
RTVSPropertyOp31
 70
     1
102
RTVSPropertyOp32
 70
     1
  0
XRECORD
  5
960
102
{ACAD_REACTORS
330
95F
102
}
330
95F
100
AcDbXrecord
280
     1
102
RTVSPropertyOp0
 70
     1
102
RTVSPropertyOp1
 70
     1
102
RTVSPropertyOp2
 70
     1
102
RTVSPropertyOp3
 70
     1
102
RTVSPropertyOp4
 70
     1
102
RTVSPropertyOp5
 70
     1
102
RTVSPropertyOp6
 70
     1
102
RTVSPropertyOp7
 70
     1
102
RTVSPropertyOp8
 70
     1
102
RTVSPropertyOp9
 70
     1
102
RTVSPropertyOp10
 70
     1
102
RTVSPropertyOp11
 70
     1
102
RTVSPropertyOp12
 70
     1
102
RTVSPropertyOp13
 70
     1
102
RTVSPropertyOp14
 70
     1
102
RTVSPropertyOp15
 70
     1
102
RTVSPropertyOp16
 70
     1
102
RTVSPropertyOp17
 70
     1
102
RTVSPropertyOp18
 70
     1
102
RTVSPropertyOp19
 70
     1
102
RTVSPropertyOp20
 70
     1
102
RTVSPropertyOp21
 70
     1
102
RTVSPropertyOp22
 70
     1
102
RTVSPropertyOp23
 70
     1
102
RTVSPropertyOp24
 70
     1
102
RTVSPropertyOp25
 70
     1
102
RTVSPropertyOp26
 70
     1
102
RTVSPropertyOp27
 70
     1
102
RTVSPropertyOp28
 70
     1
102
RTVSPropertyOp29
 70
     1
102
RTVSPropertyOp30
 70
     1
102
RTVSPropertyOp31
 70
     1
102
RTVSPropertyOp32
 70
     1
  0
XRECORD
  5
962
102
{ACAD_REACTORS
330
961
102
}
330
961
100
AcDbXrecord
280
     1
102
RTVSPropertyOp0
 70
     1
102
RTVSPropertyOp1
 70
     1
102
RTVSPropertyOp2
 70
     1
102
RTVSPropertyOp3
 70
     1
102
RTVSPropertyOp4
 70
     1
102
RTVSPropertyOp5
 70
     1
102
RTVSPropertyOp6
 70
     1
102
RTVSPropertyOp7
 70
     1
102
RTVSPropertyOp8
 70
     1
102
RTVSPropertyOp9
 70
     1
102
RTVSPropertyOp10
 70
     1
102
RTVSPropertyOp11
 70
     1
102
RTVSPropertyOp12
 70
     1
102
RTVSPropertyOp13
 70
     1
102
RTVSPropertyOp14
 70
     1
102
RTVSPropertyOp15
 70
     1
102
RTVSPropertyOp16
 70
     1
102
RTVSPropertyOp17
 70
     1
102
RTVSPropertyOp18
 70
     1
102
RTVSPropertyOp19
 70
     1
102
RTVSPropertyOp20
 70
     1
102
RTVSPropertyOp21
 70
     1
102
RTVSPropertyOp22
 70
     1
102
RTVSPropertyOp23
 70
     1
102
RTVSPropertyOp24
 70
     1
102
RTVSPropertyOp25
 70
     1
102
RTVSPropertyOp26
 70
     1
102
RTVSPropertyOp27
 70
     1
102
RTVSPropertyOp28
 70
     1
102
RTVSPropertyOp29
 70
     1
102
RTVSPropertyOp30
 70
     1
102
RTVSPropertyOp31
 70
     1
102
RTVSPropertyOp32
 70
     1
  0
XRECORD
  5
958
102
{ACAD_REACTORS
330
957
102
}
330
957
100
AcDbXrecord
280
     1
102
RTVSPropertyOp0
 70
     1
102
RTVSPropertyOp1
 70
     1
102
RTVSPropertyOp2
 70
     1
102
RTVSPropertyOp3
 70
     1
102
RTVSPropertyOp4
 70
     1
102
RTVSPropertyOp5
 70
     1
102
RTVSPropertyOp6
 70
     1
102
RTVSPropertyOp7
 70
     1
102
RTVSPropertyOp8
 70
     1
102
RTVSPropertyOp9
 70
     1
102
RTVSPropertyOp10
 70
     1
102
RTVSPropertyOp11
 70
     1
102
RTVSPropertyOp12
 70
     1
102
RTVSPropertyOp13
 70
     1
102
RTVSPropertyOp14
 70
     1
102
RTVSPropertyOp15
 70
     1
102
RTVSPropertyOp16
 70
     1
102
RTVSPropertyOp17
 70
     1
102
RTVSPropertyOp18
 70
     1
102
RTVSPropertyOp19
 70
     1
102
RTVSPropertyOp20
 70
     1
102
RTVSPropertyOp21
 70
     1
102
RTVSPropertyOp22
 70
     1
102
RTVSPropertyOp23
 70
     1
102
RTVSPropertyOp24
 70
     1
102
RTVSPropertyOp25
 70
     1
102
RTVSPropertyOp26
 70
     1
102
RTVSPropertyOp27
 70
     1
102
RTVSPropertyOp28
 70
     1
102
RTVSPropertyOp29
 70
     1
102
RTVSPropertyOp30
 70
     1
102
RTVSPropertyOp31
 70
     1
102
RTVSPropertyOp32
 70
     1
  0
XRECORD
  5
94C
102
{ACAD_REACTORS
330
94B
102
}
330
94B
100
AcDbXrecord
280
     1
102
RTVSPropertyOp0
 70
     1
102
RTVSPropertyOp1
 70
     1
102
RTVSPropertyOp2
 70
     1
102
RTVSPropertyOp3
 70
     1
102
RTVSPropertyOp4
 70
     1
102
RTVSPropertyOp5
 70
     1
102
RTVSPropertyOp6
 70
     1
102
RTVSPropertyOp7
 70
     1
102
RTVSPropertyOp8
 70
     1
102
RTVSPropertyOp9
 70
     1
102
RTVSPropertyOp10
 70
     1
102
RTVSPropertyOp11
 70
     1
102
RTVSPropertyOp12
 70
     1
102
RTVSPropertyOp13
 70
     1
102
RTVSPropertyOp14
 70
     1
102
RTVSPropertyOp15
 70
     1
102
RTVSPropertyOp16
 70
     1
102
RTVSPropertyOp17
 70
     1
102
RTVSPropertyOp18
 70
     1
102
RTVSPropertyOp19
 70
     1
102
RTVSPropertyOp20
 70
     1
102
RTVSPropertyOp21
 70
     1
102
RTVSPropertyOp22
 70
     1
102
RTVSPropertyOp23
 70
     1
102
RTVSPropertyOp24
 70
     1
102
RTVSPropertyOp25
 70
     1
102
RTVSPropertyOp26
 70
     1
102
RTVSPropertyOp27
 70
     1
102
RTVSPropertyOp28
 70
     1
102
RTVSPropertyOp29
 70
     1
102
RTVSPropertyOp30
 70
     1
102
RTVSPropertyOp31
 70
     1
102
RTVSPropertyOp32
 70
     1
  0
XRECORD
  5
964
102
{ACAD_REACTORS
330
963
102
}
330
963
100
AcDbXrecord
280
     1
102
RTVSPropertyOp0
 70
     1
102
RTVSPropertyOp1
 70
     1
102
RTVSPropertyOp2
 70
     1
102
RTVSPropertyOp3
 70
     1
102
RTVSPropertyOp4
 70
     1
102
RTVSPropertyOp5
 70
     1
102
RTVSPropertyOp6
 70
     1
102
RTVSPropertyOp7
 70
     1
102
RTVSPropertyOp8
 70
     1
102
RTVSPropertyOp9
 70
     1
102
RTVSPropertyOp10
 70
     1
102
RTVSPropertyOp11
 70
     1
102
RTVSPropertyOp12
 70
     1
102
RTVSPropertyOp13
 70
     1
102
RTVSPropertyOp14
 70
     1
102
RTVSPropertyOp15
 70
     1
102
RTVSPropertyOp16
 70
     1
102
RTVSPropertyOp17
 70
     1
102
RTVSPropertyOp18
 70
     1
102
RTVSPropertyOp19
 70
     1
102
RTVSPropertyOp20
 70
     1
102
RTVSPropertyOp21
 70
     1
102
RTVSPropertyOp22
 70
     1
102
RTVSPropertyOp23
 70
     1
102
RTVSPropertyOp24
 70
     1
102
RTVSPropertyOp25
 70
     1
102
RTVSPropertyOp26
 70
     1
102
RTVSPropertyOp27
 70
     1
102
RTVSPropertyOp28
 70
     1
102
RTVSPropertyOp29
 70
     1
102
RTVSPropertyOp30
 70
     1
102
RTVSPropertyOp31
 70
     1
102
RTVSPropertyOp32
 70
     1
  0
ENDSEC
  0
EOF
